VERSION	0.00.00	1.03.00
FES_MODE	0
BPM_DEF	209.000	209.000	209.000	209.000
MET_DEF	4	4
RESOLUTION	384
CLK_DEF	384
COMPATIBLE_CODE	MA2

BPM	0	0	209.000
MET	0	0	4	4

TTP	1	0	0	C	1	M1
TTP	1	0	2	B	0	M1
TTP	1	0	3	B	0	M1
TTP	1	0	4	B	0	M1
TTP	1	0	5	B	0	M1
TTP	2	0	0	C	1	M1
TTP	2	0	3	B	0	M1
TTP	2	0	4	B	0	M1
TTP	2	0	5	B	0	M1
TTP	2	0	6	B	0	M1
TTP	3	0	0	C	1	M1
TTP	3	0	1	B	0	M1
TTP	3	0	2	B	0	M1
TTP	3	0	3	B	0	M1
TTP	3	0	4	B	0	M1
TTP	4	0	0	B	0	M1
TTP	4	0	0	C	1	M1
TTP	4	0	1	B	0	M1
TTP	4	0	6	B	0	M1
TTP	4	0	7	B	0	M1
TTP	5	0	0	C	1	M1
TTP	5	0	1	B	0	M1
TTP	5	0	2	B	0	M1
TTP	5	0	2	E	0	M1
TTP	5	0	5	B	0	M1
TTP	5	0	6	B	0	M1
TTP	5	0	6	E	0	M1
TAP	6	0	7
TAP	6	96	0
TAP	6	96	6
TAP	6	192	1
TAP	6	192	5
TAP	6	288	2
TAP	6	288	4
TAP	7	0	0
TAP	7	96	1
TAP	7	96	7
TAP	7	192	2
TAP	7	192	6
TAP	7	288	3
TAP	7	288	5
TAP	8	0	0
TAP	8	0	7
TAP	8	96	1
TAP	8	96	6
TAP	8	192	2
TAP	8	192	5
TAP	8	288	3
TAP	8	288	4
HLD	9	0	2	288
HLD	9	0	5	288
HLD	10	0	1	288
HLD	10	0	6	288
STR	11	0	7
SI_	11	0	7	96	96	3
STR	11	192	0
SI_	11	192	0	96	96	4
BRK	12	0	7
TAP	12	96	6
TAP	12	144	6
TAP	12	192	4
TAP	12	288	3
TAP	12	336	3
TAP	13	0	5
TAP	13	96	2
TAP	13	96	4
TAP	13	192	1
TAP	13	192	3
STR	13	288	0
SI_	13	288	0	96	48	4
TAP	14	0	5
STR	14	48	5
SCL	14	48	5	96	192	7
TTP	14	144	0	C	1	M1
HLD	15	0	1	96
HLD	15	96	3	96
HLD	15	192	4	96
TAP	15	288	6
TAP	16	0	3
TAP	16	0	7
TAP	16	96	2
HLD	16	192	1	72
HLD	16	264	2	72
TAP	16	336	3
TAP	17	0	3
TAP	17	96	4
TAP	17	96	5
TAP	17	192	6
TAP	17	192	7
TAP	17	288	0
TAP	17	288	1
TAP	18	0	2
TAP	18	0	3
STR	18	96	4
SI_	18	96	4	96	96	0
TAP	18	96	5
HLD	19	0	7	96
TAP	19	96	0
TAP	19	192	0
TAP	19	192	7
TAP	19	264	1
TAP	19	264	6
TAP	19	336	2
TAP	19	336	5
STR	20	0	2
SI_	20	0	2	96	48	5
TAP	20	0	5
STR	20	96	6
SI_	20	96	6	96	48	3
STR	20	192	0
SI_	20	192	0	96	48	4
TAP	20	288	7
STR	21	0	6
SI_	21	0	6	96	48	3
STR	21	96	1
SI_	21	96	1	96	48	4
STR	21	192	7
SI_	21	192	7	96	48	3
HLD	21	288	0	96
TAP	22	0	5
TAP	22	48	5
TAP	22	96	4
TAP	22	144	6
TAP	22	192	2
TAP	22	240	2
TAP	22	288	3
TAP	22	336	1
TAP	23	0	0
TAP	23	0	7
TAP	23	96	5
TAP	23	96	6
TAP	23	192	3
TAP	23	192	4
TAP	23	288	1
TAP	23	288	2
TAP	24	0	0
TAP	24	48	0
TAP	24	96	7
TAP	24	144	7
TAP	24	192	0
TAP	24	240	0
TAP	24	288	7
TAP	24	336	7
HLD	25	0	0	192
TAP	25	96	3
HLD	25	192	7	192
TAP	25	288	4
TAP	26	0	1
TAP	26	48	1
TAP	26	96	3
TAP	26	144	3
TAP	26	192	2
TAP	26	240	2
TAP	26	288	5
TAP	26	336	5
TAP	27	0	4
TAP	27	48	6
TAP	27	96	3
TAP	27	144	2
TAP	27	192	4
TAP	27	240	5
TAP	27	288	1
TAP	27	336	3
TAP	28	0	2
TAP	28	48	2
TAP	28	96	3
TAP	28	144	0
TAP	28	192	5
TAP	28	240	5
TAP	28	288	4
TAP	28	336	7
TAP	29	0	3
TAP	29	48	2
TAP	29	96	4
TAP	29	144	5
XTP	29	192	1
XTP	29	192	6
XTP	29	288	3
XTP	29	288	5
TAP	30	0	6
TAP	30	48	6
TAP	30	96	4
TAP	30	144	4
TAP	30	192	5
TAP	30	240	5
TAP	30	288	2
TAP	30	336	2
TAP	31	0	3
TAP	31	48	1
TAP	31	96	4
TAP	31	144	5
TAP	31	192	3
TAP	31	240	2
TAP	31	288	6
TAP	31	336	4
TAP	32	0	5
TAP	32	48	5
TAP	32	96	4
TAP	32	144	7
TAP	32	192	2
TAP	32	240	2
TAP	32	288	3
TAP	32	336	0
TAP	33	0	4
TAP	33	48	5
TAP	33	96	3
TAP	33	144	2
TAP	33	192	5
TAP	33	240	6
TAP	33	288	2
TAP	33	336	1
STR	34	0	7
SXR	34	0	7	96	288	3
XST	35	0	0
SXL	35	0	0	96	288	4
XHO	36	0	5	96
HLD	36	96	7	96
HLD	36	192	0	96
HLD	36	288	2	96
TAP	37	0	5
TAP	37	96	3
TAP	37	96	4
TAP	37	192	0
TAP	37	192	7
BRK	37	288	1
BRK	37	288	6
TAP	38	0	0
TAP	38	24	7
TAP	38	48	0
TAP	38	72	7
TAP	38	96	0
TAP	38	120	7
TAP	38	144	0
XTP	38	192	1
XTP	38	192	6
XTP	38	264	2
XTP	38	336	3
XTP	38	336	6
TAP	39	0	5
TAP	39	24	4
TAP	39	48	5
TAP	39	72	4
TAP	39	96	5
TAP	39	120	4
TAP	39	144	5
XTP	39	192	3
XTP	39	192	6
XTP	39	264	2
XTP	39	336	1
XTP	39	336	4
TAP	40	0	2
TAP	40	24	3
TAP	40	48	2
TAP	40	72	3
TAP	40	96	2
TAP	40	120	3
TAP	40	144	2
XTP	40	192	1
XTP	40	192	4
XTP	40	264	6
XTP	40	336	3
XTP	40	336	7
TAP	41	0	6
TAP	41	24	4
TAP	41	48	6
TAP	41	72	4
TAP	41	96	6
TAP	41	120	4
TAP	41	144	6
XTP	41	192	3
XTP	41	192	7
XTP	41	240	3
XTP	41	240	7
XTP	41	288	3
XTP	41	288	7
STR	42	0	1
SI_	42	0	1	96	48	4
STR	42	96	6
SI_	42	96	6	96	48	1
STR	42	192	2
SI_	42	192	2	96	48	5
STR	42	288	7
SI_	42	288	7	96	48	3
STR	43	0	0
SI_	43	0	0	96	48	4
STR	43	96	6
SI_	43	96	6	96	48	1
STR	43	192	2
SI_	43	192	2	96	48	5
TAP	43	288	7
TAP	44	0	6
TAP	44	48	6
TAP	44	96	4
TAP	44	144	4
TAP	44	192	3
TAP	44	240	3
STR	44	288	1
SCR	44	288	1	96	192	7
TTP	45	0	0	C	1	M1
TAP	46	0	7
TAP	46	24	0
TAP	46	48	7
TAP	46	72	0
TAP	46	96	7
TAP	46	120	0
TAP	46	144	7
XTP	46	192	1
XTP	46	192	6
XTP	46	264	5
XTP	46	336	1
XTP	46	336	4
TAP	47	0	2
TAP	47	24	3
TAP	47	48	2
TAP	47	72	3
TAP	47	96	2
TAP	47	120	3
TAP	47	144	2
XTP	47	192	1
XTP	47	192	4
XTP	47	264	6
XTP	47	336	3
XTP	47	336	7
TAP	48	0	6
TAP	48	24	4
TAP	48	48	6
TAP	48	72	4
TAP	48	96	6
TAP	48	120	4
TAP	48	144	6
XTP	48	192	3
XTP	48	192	7
XTP	48	264	1
XTP	48	336	0
XTP	48	336	5
TAP	49	0	1
TAP	49	24	4
TAP	49	48	1
TAP	49	72	4
TAP	49	96	1
TAP	49	120	4
TAP	49	144	1
TAP	49	168	4
TAP	49	192	2
TAP	49	216	5
TAP	49	240	2
TAP	49	264	5
TAP	49	288	2
TAP	50	0	4
TAP	50	0	5
TAP	50	72	3
TAP	50	72	6
TAP	50	144	3
HLD	50	144	6	96
TAP	50	240	4
TAP	50	288	3
TAP	51	0	2
TAP	51	0	3
TAP	51	72	1
TAP	51	72	4
HLD	51	144	1	96
TAP	51	144	4
TAP	51	240	3
TAP	51	288	4
TAP	52	0	0
TAP	52	0	5
TAP	52	72	1
TAP	52	72	6
TAP	52	144	2
TAP	52	144	7
TAP	52	192	2
TAP	52	192	7
TAP	52	264	1
TAP	52	264	6
TAP	52	336	0
TAP	52	336	5
TAP	53	0	0
STR	53	0	5
SI_	53	0	5	96	48	2
STR	53	96	1
SCR	53	96	1	96	192	0
TTP	54	0	0	C	1	M1
HLD	55	0	6	72
HLD	55	72	5	72
TAP	55	144	4
TAP	55	192	4
TAP	55	240	3
TAP	55	288	2
TAP	55	336	1
TAP	56	0	0
TAP	56	96	0
TAP	56	96	4
TAP	56	192	1
TAP	56	192	5
TAP	56	288	2
TAP	56	288	6
TTP	57	0	6	E	0	M1
TTP	57	24	5	B	0	M1
TTP	57	48	4	B	0	M1
TTP	57	72	4	E	0	M1
TTP	57	96	1	E	0	M1
TTP	57	120	1	B	0	M1
TTP	57	144	2	B	0	M1
TTP	57	168	3	E	0	M1
TTP	57	192	7	E	0	M1
TTP	57	216	6	B	0	M1
TTP	57	240	5	B	0	M1
TTP	57	264	5	E	0	M1
TTP	57	288	2	E	0	M1
TTP	57	312	2	B	0	M1
TTP	57	336	3	B	0	M1
TTP	57	360	4	E	0	M1
STR	58	0	7
SI_	58	0	7	96	48	3
STR	58	96	0
SI_	58	96	0	96	48	4
TAP	58	192	7
TAP	58	264	6
TAP	58	336	5
TAP	59	24	4
TAP	59	96	3
TAP	59	168	2
TAP	59	240	1
TAP	59	312	0
XTP	60	0	0
XTP	60	24	1
XTP	60	48	2
XTP	60	72	3
XTP	60	96	4
XTP	60	120	5
XTP	60	144	6
XTP	60	168	7
XTP	60	192	0
XTP	60	216	1
XTP	60	240	2
XTP	60	264	3
XTP	60	288	4
XTP	60	312	5
XTP	60	336	6
XTP	60	360	7
TAP	61	0	0
TAP	61	24	1
TAP	61	48	2
TAP	61	72	3
TAP	61	96	4
TAP	61	120	5
TAP	61	144	6
TAP	61	168	7
TAP	61	192	0
TAP	61	216	1
TAP	61	240	2
TAP	61	264	3
TAP	61	288	4
HLD	62	0	6	144
TAP	62	96	2
HLD	62	144	1	144
TAP	62	240	4
HLD	62	288	5	144
TAP	63	0	3
HLD	63	48	2	144
TAP	63	144	4
HLD	63	192	6	144
TAP	63	288	3
HLD	63	336	1	144
TAP	64	48	3
HLD	64	96	5	144
TAP	64	192	4
HLD	64	240	2	144
TAP	64	336	3
STR	65	0	5
SI_	65	0	5	96	48	2
STR	65	192	0
SI_	65	192	0	96	48	3
STR	66	0	7
SI_	66	0	7	96	48	4
HLD	66	192	0	192
BRK	67	0	7
TTP	68	0	0	C	1	M1
TTP	68	0	2	B	0	M1
TTP	68	0	3	B	0	M1
TTP	68	0	4	B	0	M1
TTP	68	0	5	B	0	M1
TAP	69	0	0
HLD	69	0	7	192
HLD	69	192	6	192
HLD	70	0	5	192
HLD	70	192	4	192
HLD	71	0	3	192
HLD	71	192	2	192
HLD	72	0	1	192
HLD	72	192	0	192
TAP	73	0	7
STR	73	96	7
SF_	73	96	7	96	96	3
TAP	74	0	0
STR	74	96	0
SF_	74	96	0	96	96	4
BRK	75	0	2
BRK	75	0	6
TAP	75	192	3
TAP	75	192	5
STR	75	288	6
SCL	75	288	6	96	96	2
TAP	76	192	0
STR	76	288	1
SCR	76	288	1	96	96	5
TAP	77	192	7
STR	77	288	6
SCL	77	288	6	96	96	2
HLD	78	192	1	96
TAP	78	288	3
TAP	79	0	0
TAP	79	0	4
HLD	79	192	6	96
TAP	79	288	4
TAP	80	0	3
TAP	80	0	7
HLD	80	192	0	96
TAP	80	288	7
TAP	81	0	1
TAP	81	0	6
TAP	81	192	3
TAP	81	192	4
TAP	81	288	2
TAP	81	288	5
TAP	82	0	0
TAP	82	0	7
BRK	82	192	1
BRK	82	192	6
TAP	83	0	2
TAP	83	24	3
TAP	83	48	2
TAP	83	72	3
TAP	83	96	2
TAP	83	120	3
TAP	83	144	2
XTP	83	192	1
XTP	83	192	4
XTP	83	264	5
XTP	83	336	0
XTP	83	336	5
TAP	84	0	6
TAP	84	24	7
TAP	84	48	6
TAP	84	72	7
TAP	84	96	6
TAP	84	120	7
TAP	84	144	6
XTP	84	192	0
XTP	84	192	5
XTP	84	264	1
XTP	84	336	2
XTP	84	336	7
TAP	85	0	1
TAP	85	24	0
TAP	85	48	1
TAP	85	72	0
TAP	85	96	1
TAP	85	120	0
TAP	85	144	1
XTP	85	192	2
XTP	85	192	7
XTP	85	264	6
XTP	85	336	1
XTP	85	336	5
TAP	86	0	6
TAP	86	24	0
TAP	86	48	6
TAP	86	72	0
TAP	86	96	6
TAP	86	120	0
TAP	86	144	6
XTP	86	192	1
XTP	86	192	5
XTP	86	240	1
XTP	86	240	5
XTP	86	288	1
XTP	86	288	5
HLD	87	0	2	72
HLD	87	72	1	72
TAP	87	144	0
HLD	87	192	7	72
HLD	87	264	6	72
TAP	87	336	5
HLD	88	0	5	72
HLD	88	72	6	72
TAP	88	144	7
HLD	88	192	0	72
HLD	88	264	1	72
TAP	88	336	2
TAP	89	0	6
TAP	89	48	6
TAP	89	96	4
TAP	89	144	4
TAP	89	192	3
TAP	89	240	3
STR	89	288	1
SCR	89	288	1	96	192	7
TTP	90	0	0	C	1	M1
TAP	91	0	5
TAP	91	24	4
TAP	91	48	5
TAP	91	72	4
TAP	91	96	5
TAP	91	120	4
TAP	91	144	5
XTP	91	192	3
XTP	91	192	6
XTP	91	264	2
XTP	91	336	2
XTP	91	336	7
TAP	92	0	1
TAP	92	24	0
TAP	92	48	1
TAP	92	72	0
TAP	92	96	1
TAP	92	120	0
TAP	92	144	1
XTP	92	192	2
XTP	92	192	7
XTP	92	264	6
XTP	92	336	0
XTP	92	336	5
TAP	93	0	6
TAP	93	24	7
TAP	93	48	6
TAP	93	72	7
TAP	93	96	6
TAP	93	120	7
TAP	93	144	6
XTP	93	192	0
XTP	93	192	5
XTP	93	264	1
XTP	93	336	2
XTP	93	336	6
TAP	94	0	1
TAP	94	24	7
TAP	94	48	1
TAP	94	72	7
TAP	94	96	1
TAP	94	120	7
TAP	94	144	1
TAP	94	168	7
TAP	94	192	0
TAP	94	216	6
TAP	94	240	0
TAP	94	264	6
BRK	94	288	0
TAP	95	0	1
TAP	95	0	5
TAP	95	48	1
TAP	95	48	5
TAP	95	96	2
TAP	95	96	6
TAP	95	144	2
HLD	95	144	6	96
TAP	95	240	4
TAP	95	288	3
TAP	95	288	5
TAP	96	0	2
TAP	96	0	6
TAP	96	48	2
TAP	96	48	6
TAP	96	96	1
TAP	96	96	5
HLD	96	144	1	96
TAP	96	144	5
TAP	96	240	3
TAP	96	288	2
TAP	96	288	4
TAP	97	0	3
TAP	97	0	6
TAP	97	72	2
TAP	97	72	5
TAP	97	144	1
TAP	97	144	4
TAP	97	192	1
TAP	97	192	4
TAP	97	264	2
TAP	97	264	5
TAP	97	336	3
TAP	97	336	6
TAP	98	0	3
STR	98	0	6
SI_	98	0	6	96	48	1
STR	98	96	1
SCR	98	96	1	96	192	0
TTP	99	0	0	C	1	M1
XTP	100	0	2
XTP	100	0	3
XTP	100	96	0
XTP	100	96	1
XTP	100	192	4
XTP	100	192	5
XTP	100	288	6
XTP	100	288	7
XTP	101	0	2
TAP	101	24	3
TAP	101	48	2
TAP	101	72	3
XTP	101	96	2
TAP	101	120	3
TAP	101	144	2
TAP	101	168	3
XTP	101	192	1
TAP	101	216	3
TAP	101	240	1
TAP	101	264	3
XTP	101	288	1
XTP	102	0	4
XTP	102	0	5
XTP	102	96	6
XTP	102	96	7
XTP	102	192	2
XTP	102	192	3
XTP	102	288	0
XTP	102	288	1
XTP	103	0	5
TAP	103	24	4
TAP	103	48	5
TAP	103	72	4
XTP	103	96	5
TAP	103	120	4
TAP	103	144	5
TAP	103	168	4
XTP	103	192	6
TAP	103	216	4
TAP	103	240	6
TAP	103	264	4
XTP	103	288	6
STR	104	0	6
SI_	104	0	6	96	48	4
STR	104	0	7
SI_	104	0	7	96	48	3
STR	104	192	0
SI_	104	192	0	96	48	4
STR	104	192	1
SI_	104	192	1	96	48	3
TAP	105	0	0
HLD	105	0	7	192
TAP	105	96	0
STR	105	192	0
SI_	105	192	0	96	48	4
TAP	105	288	0
STR	106	0	5
SCL	106	0	5	96	48	2
STR	106	192	1
SCL	106	192	1	96	48	6
HLD	107	0	5	96
TAP	107	96	2
BRK	107	192	3
BRK	107	192	4
BST	107	288	0
SI_	107	288	0	96	48	4
BST	107	288	7
SI_	107	288	7	96	48	3
BRK	108	0	0
BRK	108	0	7

T_REC_TAP	433
T_REC_BRK	13
T_REC_XTP	116
T_REC_HLD	52
T_REC_XHO	1
T_REC_STR	42
T_REC_BST	2
T_REC_XST	1
T_REC_TTP	53
T_REC_THO	0
T_REC_SLD	45
T_REC_ALL	758
T_NUM_TAP	645
T_NUM_BRK	15
T_NUM_HLD	53
T_NUM_SLD	45
T_NUM_ALL	758
T_JUDGE_TAP	660
T_JUDGE_HLD	154
T_JUDGE_SLD	45
T_JUDGE_ALL	859
TTM_EACHPAIRS	120
TTM_SCR_TAP	322500
TTM_SCR_BRK	39000
TTM_SCR_HLD	53000
TTM_SCR_SLD	67500
TTM_SCR_ALL	482000
TTM_SCR_S	466100
TTM_SCR_SS	480500
TTM_RAT_ACV	10031

