VERSION	0.00.00	1.03.00
FES_MODE	0
BPM_DEF	209.000	209.000	209.000	209.000
MET_DEF	4	4
RESOLUTION	384
CLK_DEF	384
COMPATIBLE_CODE	MA2

BPM	0	0	209.000
MET	0	0	4	4

HLD	1	0	3	192
HLD	1	0	4	192
HLD	2	0	4	192
HLD	2	0	5	192
HLD	3	0	2	192
HLD	3	0	3	192
HLD	4	0	5	192
HLD	4	192	4	192
HLD	5	0	3	192
TAP	5	192	2
HLD	6	0	1	192
HLD	6	192	0	192
HLD	7	0	7	192
TAP	7	192	6
HLD	8	0	4	96
HLD	8	0	5	96
TAP	8	192	4
TAP	8	192	5
STR	9	0	6
SI_	9	0	6	96	192	3
STR	10	0	2
SI_	10	0	2	96	192	7
TAP	11	0	6
TAP	11	192	0
TAP	11	192	7
TAP	12	0	1
TAP	12	96	1
TAP	12	192	0
TAP	12	192	1
TAP	13	0	6
TAP	13	96	6
TAP	13	192	6
TAP	13	192	7
TAP	14	0	1
TAP	14	96	1
TAP	14	192	0
TAP	14	192	1
TAP	15	0	7
TAP	15	96	7
TAP	15	192	0
TAP	15	192	6
TAP	16	0	5
TAP	16	96	5
TAP	16	192	4
TAP	16	192	5
TAP	17	0	2
TAP	17	96	2
TAP	17	192	2
TAP	17	192	3
TAP	18	0	5
TAP	18	96	5
TAP	18	192	4
TAP	18	192	5
TAP	19	0	3
TAP	19	96	4
TAP	19	192	2
TAP	19	192	5
TAP	20	0	1
TAP	20	96	1
TAP	20	192	0
TAP	20	192	1
TAP	21	0	6
TAP	21	96	6
TAP	21	192	6
TAP	21	192	7
TAP	22	0	1
TAP	22	96	1
TAP	22	192	0
TAP	22	288	0
TAP	23	0	7
TAP	23	96	7
TAP	23	192	0
TAP	23	192	6
TAP	24	0	5
TAP	24	96	5
TAP	24	192	4
TAP	24	288	4
TAP	25	0	3
TAP	25	96	3
TAP	25	96	4
BRK	25	192	2
BRK	25	192	5
STR	26	0	6
SI_	26	0	6	96	192	3
HLD	27	0	2	192
TAP	27	192	3
STR	28	0	1
SI_	28	0	1	96	192	4
HLD	29	0	5	192
TAP	29	192	4
STR	30	0	6
SI_	30	0	6	96	192	3
HLD	31	0	2	192
TAP	31	192	3
HLD	32	0	5	192
HLD	32	192	4	192
HLD	33	0	3	192
TAP	33	192	2
STR	34	0	1
SCR	34	0	1	96	192	4
STR	35	0	5
SCR	35	0	5	96	192	0
HLD	36	0	1	96
HLD	36	192	6	96
HLD	36	192	7	96
TAP	37	0	0
TAP	37	96	0
TAP	37	96	7
TAP	37	192	0
TAP	37	192	7
TAP	38	0	6
TAP	38	96	6
TAP	38	192	6
TAP	38	192	7
TAP	38	288	6
TAP	38	288	7
TAP	39	0	1
TAP	39	96	1
TAP	39	192	0
TAP	39	192	1
TAP	39	288	0
TAP	39	288	1
TAP	40	0	2
TAP	40	96	2
TAP	40	192	3
TAP	40	288	3
TAP	41	0	4
TAP	41	96	4
TAP	41	192	3
TAP	41	192	5
HLD	42	0	6	96
TAP	42	96	7
TAP	42	192	6
TAP	42	192	7
HLD	43	0	1	96
TAP	43	96	0
TAP	43	192	0
TAP	43	192	1
TAP	44	0	2
TAP	44	96	2
TAP	44	192	3
TAP	44	288	3
TAP	45	0	4
TAP	45	96	4
TAP	45	192	3
TAP	45	192	5
TAP	46	0	2
TAP	46	96	2
TAP	46	192	2
TAP	46	192	3
TAP	46	288	2
TAP	46	288	3
TAP	47	0	5
TAP	47	96	5
TAP	47	192	4
TAP	47	192	5
TAP	47	288	4
TAP	47	288	5
TAP	48	0	6
TAP	48	96	6
TAP	48	192	7
TAP	48	288	7
TAP	49	0	0
TAP	49	96	0
TAP	49	96	7
TAP	49	192	1
TAP	49	192	6
STR	50	0	6
SI_	50	0	6	96	192	3
STR	50	0	7
SI_	50	0	7	96	192	3
STR	51	0	0
SI_	51	0	0	96	192	4
STR	51	0	1
SI_	51	0	1	96	192	4
TAP	52	0	5
TAP	52	96	5
TAP	52	192	6
TAP	52	288	6
TAP	53	0	0
TAP	53	0	7
TAP	53	96	0
TAP	53	96	7
TAP	53	192	1
TAP	53	192	6
TAP	53	288	1
TAP	53	288	6
BST	54	0	2
SLL	54	0	2	96	432	4
BST	54	0	5
SLR	54	0	5	96	432	3
TTP	56	0	5	E	0	L1
TTP	56	96	5	B	0	L1
TTP	56	192	6	B	0	L1
TTP	57	0	3	E	0	L1
TTP	57	96	2	B	0	L1
TTP	57	192	1	B	0	L1
TTP	58	0	4	B	0	L1
TTP	58	96	5	B	0	L1
TTP	58	192	6	E	0	L1
TTP	59	0	3	B	0	L1
TTP	59	96	2	B	0	L1
TTP	59	192	2	E	0	L1
TTP	60	0	5	E	0	L1
TTP	60	96	4	E	0	L1
TTP	60	192	3	E	0	L1
XTP	61	0	3
XTP	61	0	4
TAP	61	96	3
TAP	61	96	4
TAP	61	192	2
TAP	61	192	5
XHO	62	0	1	288
XHO	62	288	0	288
HLD	63	192	7	288
TAP	64	96	6
HLD	65	0	5	192
HLD	65	192	4	192
HLD	66	0	3	192
TAP	66	192	2
STR	67	0	1
SXR	67	0	1	96	480	4
STR	69	0	5
SCR	69	0	5	96	192	0
STR	70	0	1
SUR	70	0	1	96	192	5
STR	71	0	6
SUL	71	0	6	96	192	2
TAP	72	0	1
TAP	72	96	1
TAP	72	192	0
TAP	72	192	7
HLD	73	0	7	384
HLD	74	0	0	384
TTP	75	0	0	C	1	L1
TTP	76	0	4	E	0	L1
TTP	77	0	5	E	0	L1
TTP	78	0	6	E	0	L1
TTP	79	0	7	E	0	L1
TTP	80	0	0	E	0	L1
TTP	81	0	1	E	0	L1
TTP	82	0	2	B	0	L1
TTP	82	0	2	E	0	L1
TTP	82	0	3	B	0	L1
TAP	83	0	1
TAP	83	96	1
TAP	83	192	0
TAP	83	192	1
TAP	83	288	2
TAP	83	288	7
TAP	84	0	3
TAP	84	96	3
TAP	84	192	3
TAP	84	192	4
TAP	84	288	2
TAP	84	288	5
TAP	85	0	6
TAP	85	96	6
TAP	85	192	6
TAP	85	192	7
TAP	85	288	0
TAP	85	288	5
TAP	86	0	1
TAP	86	96	1
TAP	86	192	0
TAP	86	192	7
HLD	87	0	6	96
TAP	87	96	7
TAP	87	192	0
TAP	87	192	5
HLD	88	0	1	96
TAP	88	96	0
TAP	88	192	2
TAP	88	192	7
TAP	89	0	5
TAP	89	96	5
TAP	89	192	4
TAP	89	288	4
TAP	90	0	3
TAP	90	96	3
TAP	90	192	2
TAP	90	192	4
TAP	91	0	5
TAP	91	96	5
TAP	91	192	4
TAP	91	192	5
TAP	91	288	3
TAP	91	288	6
TAP	92	0	7
TAP	92	96	7
TAP	92	192	0
TAP	92	192	7
TAP	92	288	1
TAP	92	288	6
TAP	93	0	2
TAP	93	96	2
TAP	93	192	2
TAP	93	192	3
TAP	93	288	1
TAP	93	288	4
TAP	94	0	0
TAP	94	96	0
TAP	94	96	7
TAP	94	192	1
TAP	94	192	6
STR	95	0	0
SI_	95	0	0	96	192	4
STR	95	0	1
SI_	95	0	1	96	192	4
STR	96	0	6
SI_	96	0	6	96	192	3
STR	96	0	7
SI_	96	0	7	96	192	3
TAP	97	0	2
TAP	97	96	2
TAP	97	192	1
TAP	97	288	1
TAP	98	0	0
TAP	98	0	7
TAP	98	96	1
TAP	98	96	6
BRK	98	192	2
BRK	98	192	5
TAP	99	0	4
TAP	99	96	5
TAP	99	192	6
TAP	99	288	7
XTP	100	0	0
XTP	100	0	1
XTP	100	96	2
XTP	100	96	7
XTP	100	192	3
XTP	100	192	6
XTP	100	288	4
XTP	100	288	5
TAP	101	0	3
TAP	101	96	2
TAP	101	192	1
TAP	101	288	0
XTP	102	0	6
XTP	102	0	7
XTP	102	96	0
XTP	102	96	5
XTP	102	192	1
XTP	102	192	4
XTP	102	288	2
XTP	102	288	3
TAP	103	0	2
TAP	103	0	3
TAP	103	96	1
TAP	103	192	2
TAP	103	192	3
TAP	103	288	4
HLD	104	0	3	96
HLD	104	0	5	96
HLD	104	192	2	96
HLD	104	192	4	96
TAP	105	0	5
TAP	105	96	4
TAP	105	96	5
TAP	105	192	3
TAP	105	192	6
HLD	106	0	2	96
HLD	106	0	4	96
HLD	106	192	3	96
HLD	106	192	5	96
TAP	107	0	2
TAP	107	0	6
TAP	107	192	3
TAP	107	192	5
TAP	107	288	2
TAP	107	288	4
BRK	108	0	1
BRK	108	0	6

T_REC_TAP	240
T_REC_BRK	6
T_REC_XTP	18
T_REC_HLD	41
T_REC_XHO	2
T_REC_STR	19
T_REC_BST	2
T_REC_XST	0
T_REC_TTP	25
T_REC_THO	0
T_REC_SLD	21
T_REC_ALL	374
T_NUM_TAP	302
T_NUM_BRK	8
T_NUM_HLD	43
T_NUM_SLD	21
T_NUM_ALL	374
T_JUDGE_TAP	310
T_JUDGE_HLD	152
T_JUDGE_SLD	21
T_JUDGE_ALL	483
TTM_EACHPAIRS	90
TTM_SCR_TAP	151000
TTM_SCR_BRK	20800
TTM_SCR_HLD	43000
TTM_SCR_SLD	31500
TTM_SCR_ALL	246300
TTM_SCR_S	238150
TTM_SCR_SS	245500
TTM_RAT_ACV	10032

