VERSION	0.00.00	1.03.00
FES_MODE	0
BPM_DEF	209.000	209.000	209.000	209.000
MET_DEF	4	4
RESOLUTION	384
CLK_DEF	384
COMPATIBLE_CODE	MA2

BPM	0	0	209.000
MET	0	0	4	4

XTP	6	0	0
XTP	6	192	0
XTP	7	0	0
XTP	8	0	7
XTP	8	192	7
XTP	9	0	7
XTP	10	0	0
XTP	10	0	7
XTP	10	192	0
XTP	10	192	7
BRK	11	0	0
BRK	11	0	7
TAP	12	0	0
TAP	12	192	0
TAP	13	0	0
TAP	13	192	0
TAP	14	0	1
TAP	14	192	1
TAP	15	0	1
TAP	16	0	2
TAP	16	192	2
TAP	17	0	2
TAP	17	192	2
TAP	18	0	3
TAP	18	192	3
TAP	19	0	3
TAP	19	0	4
TAP	20	0	5
TAP	20	192	5
TAP	21	0	5
TAP	21	192	5
TAP	22	0	6
TAP	22	192	6
TAP	23	0	6
TAP	23	0	7
TAP	24	0	0
TAP	24	0	1
TAP	24	192	0
TAP	24	192	1
XTP	25	0	0
XTP	25	0	1
TAP	26	0	7
TAP	26	192	7
TAP	27	0	6
TAP	27	192	6
TAP	28	0	5
TAP	28	192	5
TAP	29	0	4
TAP	29	0	5
TAP	30	0	3
TAP	30	192	3
TAP	31	0	2
TAP	31	192	2
TAP	32	0	1
TAP	32	192	1
TAP	33	0	0
TAP	33	0	1
TTP	34	0	7	B	0	L1
TTP	35	0	0	B	0	L1
TTP	36	0	1	B	0	L1
TTP	36	0	6	B	0	L1
TTP	37	0	0	C	1	L1
TTP	37	0	2	B	0	L1
TTP	37	0	5	B	0	L1
XTP	38	0	0
TAP	38	96	0
TAP	38	192	0
TAP	39	0	1
TAP	39	192	1
TAP	40	0	2
TAP	40	96	2
TAP	40	192	2
TAP	41	0	3
TAP	41	0	4
TAP	41	192	3
TAP	41	192	4
TAP	42	0	4
TAP	42	96	4
TAP	42	192	4
TAP	43	0	5
TAP	43	192	5
TAP	44	0	6
TAP	44	96	6
TAP	44	192	6
TAP	45	0	0
TAP	45	0	7
TAP	46	0	7
TAP	46	96	7
TAP	46	192	7
TAP	47	0	6
TAP	47	96	6
TAP	47	192	6
TAP	48	0	5
TAP	48	96	5
TAP	48	192	5
TAP	49	0	3
TAP	49	0	4
TAP	49	192	3
TAP	49	192	4
TAP	50	0	3
TAP	50	96	3
TAP	50	192	3
TAP	51	0	2
TAP	51	96	2
TAP	51	192	2
TAP	52	0	1
TAP	52	96	1
TAP	52	192	1
BRK	53	0	0
BRK	53	0	7
STR	54	0	0
SI_	54	0	0	96	288	3
TAP	56	0	4
TAP	57	0	5
STR	58	0	6
SI_	58	0	6	96	288	2
TAP	60	0	1
TAP	61	0	0
XST	62	0	7
SI_	62	0	7	96	288	3
XST	64	0	2
SI_	64	0	2	96	288	6
BRK	66	0	7
HLD	67	0	0	384
HLD	67	0	1	384
HLD	69	0	2	384
HLD	69	0	3	384
HLD	71	0	4	384
HLD	71	0	5	384
HLD	73	0	6	384
HLD	73	0	7	384
BRK	75	0	0
TTP	77	0	0	B	0	L1
TTP	77	0	7	B	0	L1
TTP	78	0	1	B	0	L1
TTP	78	0	6	B	0	L1
TTP	79	0	2	B	0	L1
TTP	79	0	5	B	0	L1
TTP	80	0	3	B	0	L1
TTP	80	0	4	B	0	L1
TTP	81	0	2	B	0	L1
TTP	81	0	5	B	0	L1
TTP	82	0	0	C	1	L1
BRK	83	0	0
TAP	83	96	0
TAP	83	192	0
TAP	84	0	1
TAP	84	96	1
TAP	84	192	1
TAP	85	0	2
TAP	85	96	2
TAP	85	192	2
TAP	86	0	3
TAP	86	0	4
TAP	86	96	3
TAP	86	96	4
TAP	86	192	3
TAP	86	192	4
TAP	87	0	5
TAP	87	96	5
TAP	87	192	5
TAP	88	0	6
TAP	88	96	6
TAP	88	192	6
TAP	89	0	7
TAP	89	96	7
TAP	89	192	7
TAP	90	0	0
TAP	90	0	7
TAP	90	192	0
TAP	90	192	7
TAP	91	0	6
TAP	91	96	6
TAP	91	192	6
TAP	91	288	6
TAP	92	0	5
TAP	92	96	5
TAP	92	192	4
TAP	92	192	5
TAP	93	0	3
TAP	93	96	3
TAP	93	192	3
TAP	93	288	3
TAP	94	0	2
TAP	94	96	2
TAP	94	192	2
TAP	94	192	3
TAP	95	0	1
TAP	95	96	1
TAP	95	192	1
TAP	95	288	1
TAP	96	0	0
TAP	96	96	0
TAP	96	192	0
TAP	96	192	7
TAP	97	0	6
TAP	97	96	6
TAP	97	192	6
TAP	97	288	6
TAP	98	0	7
TAP	98	96	7
TAP	98	192	0
TAP	98	192	7
TAP	99	0	1
TAP	99	96	1
TAP	99	192	2
TAP	99	288	2
TAP	100	0	3
TAP	100	96	3
TAP	100	192	3
TAP	100	192	4
TAP	101	0	5
TAP	101	96	5
TAP	101	192	6
TAP	101	288	6
TAP	102	0	7
TAP	102	96	7
TAP	102	192	0
TAP	102	192	7
TAP	103	0	6
TAP	103	96	6
TAP	103	192	5
TAP	103	288	5
TAP	104	0	4
TAP	104	96	4
TAP	104	192	3
TAP	104	288	3
TAP	105	0	3
TAP	105	0	4
TAP	105	96	3
TAP	105	96	4
TAP	105	192	2
TAP	105	192	5
TAP	105	288	2
TAP	105	288	5
TAP	106	0	1
TAP	106	0	6
TAP	106	96	1
TAP	106	96	6
TAP	106	192	0
TAP	106	192	7
TAP	106	288	0
TAP	106	288	7
TAP	107	0	1
TAP	107	0	6
TAP	107	96	1
TAP	107	96	6
TAP	107	192	2
TAP	107	192	5
TAP	107	288	2
TAP	107	288	5
BRK	108	0	3
BRK	108	0	4

T_REC_TAP	197
T_REC_BRK	9
T_REC_XTP	13
T_REC_HLD	8
T_REC_XHO	0
T_REC_STR	2
T_REC_BST	0
T_REC_XST	2
T_REC_TTP	18
T_REC_THO	0
T_REC_SLD	4
T_REC_ALL	253
T_NUM_TAP	232
T_NUM_BRK	9
T_NUM_HLD	8
T_NUM_SLD	4
T_NUM_ALL	253
T_JUDGE_TAP	241
T_JUDGE_HLD	64
T_JUDGE_SLD	4
T_JUDGE_ALL	309
TTM_EACHPAIRS	44
TTM_SCR_TAP	116000
TTM_SCR_BRK	23400
TTM_SCR_HLD	8000
TTM_SCR_SLD	6000
TTM_SCR_ALL	153400
TTM_SCR_S	147950
TTM_SCR_SS	152500
TTM_RAT_ACV	10059

