VERSION	0.00.00	1.03.00
FES_MODE	0
BPM_DEF	222.000	222.000	222.000	222.000
MET_DEF	4	4
RESOLUTION	384
CLK_DEF	384
COMPATIBLE_CODE	MA2

BPM	0	0	222.000
BPM	15	0	222.000
BPM	22	0	222.000
BPM	30	0	222.000
BPM	38	0	222.000
BPM	50	0	222.000
BPM	55	0	222.000
BPM	72	0	222.000
BPM	80	0	222.000
BPM	88	0	222.000
BPM	96	0	222.000
BPM	104	0	222.000
MET	0	0	4	4

TAP	3	0	3
TAP	3	0	5
TAP	3	48	5
TAP	3	96	5
TAP	3	192	2
TAP	3	192	4
TAP	3	240	2
TAP	3	288	2
TAP	4	0	5
TAP	4	48	4
TAP	4	96	3
TAP	4	144	2
TAP	4	192	5
TAP	4	240	4
TAP	4	288	2
TAP	5	0	3
TAP	5	0	5
TAP	5	48	5
TAP	5	96	5
TAP	5	192	2
TAP	5	192	4
TAP	5	240	2
TAP	5	288	2
TAP	6	0	5
TAP	6	48	4
TAP	6	96	3
TAP	6	144	2
XTP	6	192	1
TAP	7	0	3
TAP	7	0	5
TAP	7	48	5
XTP	7	96	4
TAP	7	192	2
TAP	7	192	4
TAP	7	240	2
XTP	7	288	3
TAP	8	0	5
TAP	8	48	4
TAP	8	96	3
TAP	8	144	2
XHO	8	192	3	48
XHO	8	192	4	48
TAP	8	288	2
TAP	8	288	5
TAP	9	0	6
TAP	9	24	4
TAP	9	48	6
TAP	9	72	4
TAP	9	96	6
TAP	9	144	1
TAP	9	168	3
TAP	9	192	1
TAP	9	216	3
TAP	9	240	1
TAP	9	288	2
TAP	9	288	5
TAP	9	336	2
TAP	9	336	5
TAP	10	48	5
TAP	10	72	4
TAP	10	96	6
TAP	10	144	2
TAP	10	168	3
TAP	10	192	1
TAP	10	240	7
TAP	10	288	7
TAP	11	0	4
TAP	11	0	6
TAP	11	48	6
TAP	11	96	6
TAP	11	96	7
TAP	11	192	1
TAP	11	192	3
TAP	11	240	1
TAP	11	288	0
TAP	11	288	1
TTP	12	0	7	E	0	M1
TTP	12	48	4	B	0	M1
TTP	12	48	5	E	0	M1
TTP	12	96	1	E	0	M1
TTP	12	144	3	B	0	M1
TTP	12	144	3	E	0	M1
TTP	12	192	5	B	0	M1
TTP	12	192	6	E	0	M1
TTP	12	240	2	B	0	M1
TTP	12	240	2	E	0	M1
TTP	12	288	4	E	0	M1
XTP	13	0	1
XTP	13	0	3
TAP	13	48	1
TAP	13	96	0
TAP	13	96	1
TAP	13	192	4
TAP	13	192	6
TAP	13	240	6
TAP	13	288	6
TAP	13	288	7
TTP	14	0	0	B	0	M1
TTP	14	24	1	B	0	M1
TTP	14	48	2	B	0	M1
TTP	14	72	3	B	0	M1
TTP	14	96	4	B	0	M1
TTP	14	120	5	B	0	M1
TTP	14	144	6	B	0	M1
TTP	14	168	7	B	0	M1
TTP	14	192	0	C	1	M1
XHO	15	0	0	96
HLD	15	144	1	96
HLD	15	144	4	96
HLD	15	288	3	96
HLD	15	288	6	96
HLD	16	48	1	96
HLD	16	48	5	96
TAP	16	192	1
TAP	16	192	5
TAP	16	264	2
TAP	16	264	6
TAP	16	336	3
TAP	16	336	7
TAP	17	24	0
TAP	17	24	4
TAP	17	96	1
TAP	17	96	5
TAP	17	168	2
TAP	17	168	6
TAP	17	240	3
TAP	17	240	7
TAP	17	312	0
TAP	17	312	4
THO	18	0	0	480	C	0	M1
TAP	18	0	1
BST	19	96	7
SCL	19	96	7	96	72	4
SCR	19	96	7	96	72	2
TAP	20	0	1
TAP	20	0	4
TAP	20	48	2
TAP	20	48	5
TAP	20	96	3
TAP	20	96	6
TAP	20	144	4
TAP	20	144	7
TAP	20	240	3
TAP	20	240	6
TAP	20	288	2
TAP	20	288	5
TAP	20	336	1
TAP	20	336	4
TAP	21	48	0
TAP	21	48	3
TAP	21	96	1
TAP	21	96	4
TAP	21	144	2
TAP	21	144	5
TAP	21	192	3
TAP	21	192	6
BRK	21	288	0
BRK	21	288	7
TAP	22	0	5
HLD	22	96	4	96
TAP	22	96	6
TAP	22	192	5
HLD	22	240	3	96
TAP	22	240	5
TAP	22	336	4
HLD	23	0	2	96
TAP	23	0	4
TAP	23	96	3
TAP	23	144	1
STR	23	144	3
SI_	23	144	3	96	48	5
TAP	23	240	0
TAP	23	288	0
TAP	24	0	2
TAP	24	96	1
HLD	24	96	3	96
TAP	24	192	2
TAP	24	240	2
HLD	24	240	4	96
TAP	24	336	3
TAP	25	0	3
HLD	25	0	5	96
TAP	25	96	4
TAP	25	144	4
TAP	25	144	6
TAP	25	240	3
TAP	25	240	7
TAP	25	288	3
TAP	25	288	7
TAP	26	0	5
HLD	26	96	4	96
TAP	26	96	6
TAP	26	192	5
HLD	26	240	3	96
TAP	26	240	5
TAP	26	336	4
HLD	27	0	2	96
TAP	27	0	4
TAP	27	96	3
TAP	27	144	1
STR	27	144	3
SV_	27	144	3	96	72	4
TAP	27	240	0
TAP	27	288	0
TAP	28	0	1
TAP	28	96	1
HLD	28	96	3	96
TAP	28	192	2
TAP	28	240	2
HLD	28	240	4	96
TAP	28	336	3
TAP	29	0	5
TAP	29	48	5
TAP	29	96	2
TAP	29	144	2
TAP	29	192	4
TAP	29	216	3
TAP	29	240	4
TAP	29	264	3
TAP	29	288	4
XTP	30	0	2
XTP	30	16	1
XTP	30	32	0
XTP	30	96	3
XTP	30	112	2
XTP	30	128	1
XTP	30	192	2
XTP	30	208	1
XTP	30	224	0
XTP	30	288	3
XTP	30	304	2
XTP	30	320	1
XTP	31	0	2
XTP	31	16	1
XTP	31	32	0
XTP	31	96	3
XTP	31	112	2
XTP	31	128	1
XTP	31	192	2
XTP	31	208	1
XTP	31	224	0
STR	31	288	4
SXL	31	288	4	96	96	5
TAP	32	0	1
STR	32	96	3
SXR	32	96	3	96	96	2
TAP	32	192	6
TAP	32	288	4
TAP	33	0	6
TAP	33	48	7
TAP	33	96	0
TAP	33	144	1
TAP	33	192	2
TAP	33	240	3
STR	33	288	4
SXR	33	288	4	96	288	1
TAP	33	336	5
BRK	34	0	6
TAP	34	192	7
TAP	34	288	0
TAP	35	0	2
TAP	35	48	2
TAP	35	96	3
TAP	35	144	3
TAP	35	192	4
TAP	35	240	4
TAP	35	288	5
TAP	35	336	5
TAP	36	0	1
TAP	36	0	6
TAP	36	48	1
TAP	36	48	6
TAP	36	96	1
TAP	36	96	6
TAP	36	144	1
TAP	36	144	6
TAP	36	192	0
TAP	36	216	7
TAP	36	240	0
TAP	36	264	7
TAP	36	288	0
XTP	37	0	2
XTP	37	0	5
XTP	37	48	2
XTP	37	48	5
XTP	37	96	2
XTP	37	96	5
XTP	37	144	2
XTP	37	144	5
TTP	37	192	0	C	1	M1
TTP	37	192	1	B	0	M1
TTP	37	192	2	B	0	M1
TTP	37	192	2	E	0	M1
TTP	37	192	3	B	0	M1
TTP	37	192	4	B	0	M1
TTP	37	192	4	E	0	M1
TTP	37	192	5	B	0	M1
TTP	37	192	6	B	0	M1
TTP	37	192	6	E	0	M1
XHO	38	0	0	48
XHO	38	0	7	48
TTP	38	96	1	E	0	M1
TTP	38	96	7	E	0	M1
TAP	38	192	5
HLD	38	240	5	336
TTP	38	336	2	E	0	M1
TTP	39	48	0	C	0	M1
TAP	39	144	6
HLD	39	192	6	96
TAP	39	288	7
HLD	39	336	7	96
TAP	40	48	0
HLD	40	192	1	48
HLD	40	192	3	48
TAP	40	288	1
TAP	40	288	3
HLD	41	0	4	48
HLD	41	0	6	48
STR	41	96	4
SCL	41	96	4	96	48	1
TAP	41	96	6
TTP	41	204	6	E	0	M1
TTP	41	216	5	E	0	M1
TTP	41	228	4	E	0	M1
HLD	42	0	0	48
HLD	42	0	7	48
TTP	42	96	1	E	0	M1
TTP	42	96	7	E	0	M1
TAP	42	192	2
HLD	42	240	2	336
TTP	42	336	6	E	0	M1
TTP	43	48	0	C	0	M1
TAP	43	144	1
HLD	43	192	1	96
TAP	43	288	0
HLD	43	336	0	96
TAP	44	48	7
HLD	44	192	5	48
HLD	44	192	6	48
TAP	44	288	5
TAP	44	288	6
HLD	45	0	1	48
HLD	45	0	2	48
STR	45	96	1
SI_	45	96	1	96	48	6
STR	45	96	2
SI_	45	96	2	96	48	5
TTP	45	192	2	E	0	M1
TTP	45	204	0	C	0	M1
TTP	45	216	6	E	0	M1
XHO	46	0	0	48
XHO	46	0	7	48
TTP	46	96	1	E	0	M1
TTP	46	96	7	E	0	M1
TAP	46	192	5
HLD	46	240	5	288
TTP	46	336	6	E	0	M1
TTP	47	48	4	E	0	M1
TAP	47	144	2
HLD	47	192	2	96
TAP	47	288	0
HLD	47	336	0	96
TAP	48	48	6
HLD	48	96	6	96
TAP	48	192	4
TAP	48	288	2
TAP	48	288	3
TAP	48	336	1
TAP	48	336	4
TAP	49	48	4
TAP	49	48	5
TAP	49	96	3
TAP	49	96	6
TAP	49	192	0
TAP	49	192	7
TAP	49	240	0
TAP	49	240	7
TTP	49	336	0	C	1	M1
TTP	49	336	2	B	0	M1
TTP	49	336	2	E	0	M1
TTP	49	336	3	E	0	M1
TTP	49	336	5	B	0	M1
TTP	49	336	5	E	0	M1
TTP	49	336	6	E	0	M1
TTP	51	0	6	E	0	M1
TTP	51	96	5	E	0	M1
TTP	51	192	4	E	0	M1
TTP	51	288	3	E	0	M1
HLD	52	0	1	96
TAP	52	48	3
TAP	52	96	3
HLD	52	144	6	96
TAP	52	192	4
TAP	52	240	4
HLD	52	288	1	96
TAP	52	336	3
TAP	53	0	3
HLD	53	48	6	96
TAP	53	96	4
TAP	53	144	4
HLD	53	192	1	96
TAP	53	240	3
TAP	53	288	3
TAP	53	336	2
TAP	53	336	4
TAP	54	48	1
TAP	54	96	0
TAP	54	144	7
TAP	54	192	6
TAP	54	240	5
STR	54	288	4
SI_	54	288	4	96	48	0
TAP	54	336	3
XTP	55	0	2
XTP	55	0	4
TAP	55	144	1
TAP	55	144	7
STR	55	192	2
SI_	55	192	2	96	48	6
STR	55	240	6
SCR	55	240	6	96	144	4
TAP	55	288	2
BRK	55	336	4
TAP	56	144	6
STR	56	192	6
SI_	56	192	6	96	48	3
STR	56	240	3
SI_	56	240	3	96	48	7
TAP	56	288	1
TAP	56	336	1
TAP	57	48	0
TAP	57	72	1
HLD	57	96	2	48
TAP	57	144	6
TAP	57	168	5
HLD	57	192	4	48
TAP	57	240	0
TAP	57	264	7
STR	57	288	6
SI_	57	288	6	96	48	2
TAP	57	312	5
TAP	57	336	4
TAP	57	360	3
XTP	58	0	2
XTP	58	0	6
TAP	58	144	0
STR	58	192	0
SI_	58	192	0	96	48	4
STR	58	240	4
SI_	58	240	4	96	48	1
TAP	58	288	7
TAP	58	336	6
STR	59	0	6
SI_	59	0	6	96	48	3
STR	59	96	0
SI_	59	96	0	96	48	5
TAP	59	96	6
TAP	59	192	0
STR	59	192	7
SI_	59	192	7	96	48	3
TAP	59	288	2
TAP	59	288	7
BST	59	336	1
SXL	59	336	1	96	240	4
TAP	60	48	2
TAP	60	96	3
TAP	60	144	4
TAP	60	192	5
TAP	60	240	6
TAP	60	288	7
TAP	60	336	0
STR	61	48	6
SCL	61	48	6	96	48	3
TAP	61	96	7
TAP	61	144	6
STR	61	240	1
SUR	61	240	1	96	48	5
TAP	61	288	0
TAP	61	336	1
TAP	62	48	7
TAP	62	96	7
STR	62	144	1
SI_	62	144	1	96	48	7
STR	62	192	6
SI_	62	192	6	96	48	4
STR	62	240	1
SLR	62	240	1	96	96	7
TAP	62	288	6
BRK	62	336	1
TAP	63	144	0
STR	63	192	5
SI_	63	192	5	96	48	1
STR	63	240	1
SCL	63	240	1	96	144	3
TAP	63	288	5
BRK	63	336	3
TAP	64	144	1
STR	64	192	1
SI_	64	192	1	96	48	4
STR	64	240	4
SI_	64	240	4	96	48	0
TAP	64	288	6
TAP	64	336	6
TAP	65	48	7
TAP	65	72	6
HLD	65	96	5	48
TAP	65	144	1
TAP	65	168	2
HLD	65	192	3	48
TAP	65	240	7
TAP	65	264	0
STR	65	288	1
SI_	65	288	1	96	48	5
TAP	65	312	2
TAP	65	336	3
TAP	65	360	4
XTP	66	0	1
XTP	66	0	5
TAP	66	144	7
STR	66	192	7
SI_	66	192	7	96	48	3
STR	66	240	3
SI_	66	240	3	96	48	6
TAP	66	288	0
TAP	66	336	1
STR	67	0	1
SI_	67	0	1	96	48	4
TAP	67	96	1
STR	67	96	7
SI_	67	96	7	96	48	2
STR	67	192	0
SI_	67	192	0	96	48	4
TAP	67	192	7
TAP	67	288	0
TAP	67	288	5
BST	67	336	6
SXR	67	336	6	96	240	3
TAP	68	48	5
TAP	68	96	4
TAP	68	144	3
TAP	68	192	2
TAP	68	240	1
TAP	68	288	0
TAP	68	336	7
STR	69	48	1
SCR	69	48	1	96	48	4
TAP	69	96	0
TAP	69	144	1
STR	69	240	6
SUL	69	240	6	96	48	2
TAP	69	288	7
TAP	69	336	6
XTP	70	48	1
TAP	70	96	0
TAP	70	96	1
TAP	70	144	2
TAP	70	144	7
TAP	70	192	3
TAP	70	192	6
TAP	70	288	1
TAP	70	288	4
TAP	70	336	1
TAP	70	336	4
TAP	71	48	0
TAP	71	48	7
STR	71	96	0
SI_	71	96	0	96	48	3
STR	71	96	7
SI_	71	96	7	96	48	4
TAP	71	144	1
TAP	71	144	6
BRK	71	192	0
BRK	71	192	7
XTP	71	288	2
XTP	71	288	5
TAP	72	0	6
TAP	72	96	3
TAP	72	96	5
TAP	72	192	2
TAP	72	240	2
TAP	72	288	1
TAP	72	288	3
TAP	73	0	5
TAP	73	48	5
TAP	73	96	4
TAP	73	96	6
TAP	73	192	3
TAP	73	192	5
TAP	73	288	2
STR	73	288	6
SCL	73	288	6	96	240	7
TTP	74	0	0	C	1	M1
TAP	75	0	4
TAP	75	0	6
TAP	75	96	1
STR	75	96	3
SI_	75	96	3	96	48	0
BRK	75	192	3
BRK	75	192	4
TTP	76	0	1	B	0	M1
XHO	76	0	4	48
TTP	76	96	2	B	0	M1
XHO	76	96	5	48
TTP	76	192	3	B	0	M1
XHO	76	192	6	48
TTP	76	288	4	B	0	M1
XHO	76	288	7	48
XHO	77	0	0	48
TTP	77	0	5	B	0	M1
XHO	77	96	1	48
TTP	77	96	6	B	0	M1
XHO	77	192	2	48
TTP	77	192	7	B	0	M1
THO	77	288	0	480	C	1	M1
XTP	77	288	3
TTP	78	0	4	E	0	M1
TTP	78	48	3	E	0	M1
TTP	78	96	2	E	0	M1
TTP	78	144	1	E	0	M1
TTP	78	192	0	E	0	M1
TTP	78	240	7	E	0	M1
TTP	78	288	6	E	0	M1
TTP	78	336	5	E	0	M1
TTP	79	0	4	E	0	M1
XTP	79	96	0
XTP	79	96	7
XHO	79	192	1	48
XHO	79	192	5	48
BRK	79	288	3
BRK	79	288	7
TAP	80	0	2
TAP	80	0	4
TAP	80	96	1
HLD	80	96	5	96
TAP	80	192	2
TAP	80	240	2
HLD	80	240	5	96
TAP	80	336	3
TAP	81	0	3
HLD	81	0	5	96
TAP	81	96	4
STR	81	144	4
SV_	81	144	4	96	72	3
TAP	81	144	5
TAP	81	240	6
TAP	81	288	6
TAP	82	0	7
HLD	82	96	2	96
TAP	82	96	6
TAP	82	192	5
HLD	82	240	2	96
TAP	82	240	5
TAP	82	336	4
HLD	83	0	2	96
TAP	83	0	4
TAP	83	96	3
TAP	83	144	2
TAP	83	144	3
TAP	83	240	1
TAP	83	240	5
TAP	83	288	1
TAP	83	288	5
TAP	84	0	4
XST	84	48	0
SI_	84	48	0	96	48	2
TAP	84	96	4
XTP	84	144	0
TAP	84	192	4
XST	84	240	0
SI_	84	240	0	96	48	6
TAP	84	288	4
XTP	84	336	0
TAP	85	0	4
XST	85	48	0
SI_	85	48	0	96	48	2
TAP	85	96	4
XTP	85	144	0
TAP	85	192	4
XST	85	240	0
SI_	85	240	0	96	48	6
TAP	85	288	4
XTP	85	336	0
TAP	86	0	5
HLD	86	48	5	96
TAP	86	96	7
HLD	86	144	7	96
TAP	86	192	1
HLD	86	240	1	96
TAP	86	288	3
HLD	86	336	3	48
BST	87	0	4
SXL	87	0	4	96	192	7
SXR	87	0	4	96	192	1
STR	88	0	5
SV_	88	0	5	96	96	4
STR	88	96	4
SI_	88	96	4	96	48	2
TAP	88	192	1
TAP	88	240	1
STR	88	336	2
SV_	88	336	2	96	96	3
STR	89	48	3
SI_	89	48	3	96	48	5
TAP	89	144	6
TAP	89	192	6
STR	90	0	6
SV_	90	0	6	96	96	5
STR	90	96	5
SI_	90	96	5	96	48	3
TAP	90	192	2
TAP	90	240	2
STR	90	336	1
SV_	90	336	1	96	96	2
STR	91	48	2
SI_	91	48	2	96	48	4
TAP	91	144	5
TAP	91	192	5
TAP	91	288	4
TAP	91	288	6
HLD	92	0	4	48
HLD	92	0	6	48
HLD	92	72	3	48
HLD	92	72	5	48
HLD	92	144	2	48
HLD	92	144	4	48
HLD	92	216	1	48
HLD	92	216	3	48
TAP	92	288	0
TAP	92	288	4
HLD	93	0	1	48
HLD	93	0	3	48
HLD	93	72	2	48
HLD	93	72	4	48
HLD	93	144	3	48
HLD	93	144	5	48
HLD	93	216	4	48
HLD	93	216	6	48
TAP	93	288	3
TAP	93	288	7
TAP	94	0	4
HLD	94	0	5	96
XTP	94	16	3
XTP	94	32	2
XTP	94	48	1
XTP	94	64	0
XTP	94	80	7
XTP	94	96	6
HLD	94	192	2	96
TAP	94	192	3
XTP	94	208	4
XTP	94	224	5
XTP	94	240	6
XTP	94	256	7
XTP	94	272	0
XST	94	288	1
SCR	94	288	1	96	192	0
TTP	95	0	0	C	1	M1
BRK	95	0	1
TTP	95	0	5	B	0	M1
TTP	95	0	6	B	0	M1
BRK	96	0	0
BRK	96	0	7
XTP	97	0	4
XTP	97	0	5
XTP	97	144	3
XTP	97	144	4
XTP	97	288	2
XTP	97	288	3
XTP	98	0	1
XTP	98	0	4
XTP	98	192	3
XTP	98	192	6
XTP	99	0	1
XTP	99	0	4
XTP	99	144	2
XTP	99	144	5
XTP	99	288	3
XTP	99	288	6
TAP	100	0	5
TAP	100	48	5
TAP	100	96	4
TAP	100	144	4
TAP	100	192	2
TAP	100	240	2
TAP	100	288	3
TAP	100	336	3
TAP	101	0	3
TAP	101	0	4
TAP	101	48	3
TAP	101	48	4
TAP	101	96	3
TAP	101	96	4
TAP	101	144	3
TAP	101	144	4
TTP	101	240	3	E	0	M1
TTP	101	288	4	E	0	M1
TTP	101	336	5	E	0	M1
TTP	102	48	7	E	0	M1
TTP	102	96	6	B	0	M1
TTP	102	144	5	B	0	M1
TTP	102	192	2	E	0	M1
TTP	102	240	2	B	0	M1
TTP	102	288	3	B	0	M1
THO	102	336	0	336	C	0	M1
XST	103	288	0
SF_	103	288	0	96	48	4
BRK	104	0	0
TAP	104	144	6
STR	104	192	6
SCL	104	192	6	96	48	3
STR	104	240	3
SUR	104	240	3	96	48	7
TAP	104	288	1
TAP	104	336	1
TAP	105	48	0
TAP	105	72	1
HLD	105	96	2	48
TAP	105	144	0
TAP	105	168	7
HLD	105	192	6	48
TAP	105	240	2
TAP	105	264	3
STR	105	288	4
SI_	105	288	4	96	48	0
TAP	105	312	5
TAP	105	336	6
TAP	105	360	7
XTP	106	0	0
XTP	106	0	4
TAP	106	144	1
STR	106	192	1
SI_	106	192	1	96	48	3
STR	106	240	3
SI_	106	240	3	96	48	7
TAP	106	288	6
TAP	106	336	5
STR	107	0	5
SI_	107	0	5	96	48	1
STR	107	96	0
SI_	107	96	0	96	48	4
TAP	107	96	5
TAP	107	192	0
STR	107	192	6
SI_	107	192	6	96	48	3
TAP	107	288	2
TAP	107	288	6
BST	107	336	1
SXR	107	336	1	96	240	4
TAP	108	48	2
TAP	108	96	3
TAP	108	144	4
TAP	108	192	5
TAP	108	240	6
TAP	108	288	7
TAP	108	336	0
STR	109	48	6
SUL	109	48	6	96	48	2
TAP	109	96	7
TAP	109	144	6
STR	109	240	1
SCR	109	240	1	96	48	4
TAP	109	288	0
TAP	109	336	1
XTP	110	48	5
TAP	110	96	4
TAP	110	96	5
TAP	110	144	3
TAP	110	144	6
TAP	110	192	2
TAP	110	192	7
TAP	110	288	0
TAP	110	288	5
TAP	110	336	0
TAP	110	336	5
TAP	111	48	3
TAP	111	48	4
STR	111	96	3
SI_	111	96	3	96	48	0
STR	111	96	4
SI_	111	96	4	96	48	7
TAP	111	144	2
TAP	111	144	5
BRK	111	192	3
BRK	111	192	4
XTP	111	288	1
XTP	111	288	6
TAP	112	0	2
TAP	112	96	2
TAP	112	96	3
TAP	112	192	5
TAP	112	240	5
TAP	112	288	4
TAP	112	288	6
TAP	113	0	2
TAP	113	48	2
TAP	113	96	1
TAP	113	96	3
TAP	113	192	2
TAP	113	192	4
STR	113	288	1
SCR	113	288	1	96	240	0
TAP	113	288	5
TTP	114	0	0	C	1	M1
TAP	115	0	1
TAP	115	0	3
STR	115	96	4
SI_	115	96	4	96	48	7
TAP	115	96	6
BRK	115	192	3
BRK	115	192	4
XHO	116	0	3	48
TTP	116	0	6	B	0	M1
XHO	116	96	2	48
TTP	116	96	5	B	0	M1
XHO	116	192	1	48
TTP	116	192	4	B	0	M1
XHO	116	288	0	48
TTP	116	288	3	B	0	M1
TTP	117	0	2	B	0	M1
XHO	117	0	7	48
TTP	117	96	1	B	0	M1
XHO	117	96	6	48
TTP	117	192	0	B	0	M1
XHO	117	192	5	48
THO	117	288	0	480	C	1	M1
XTP	117	288	4
TTP	118	0	4	E	0	M1
TTP	118	48	5	E	0	M1
TTP	118	96	6	E	0	M1
TTP	118	144	7	E	0	M1
TTP	118	192	0	E	0	M1
TTP	118	240	1	E	0	M1
TTP	118	288	2	E	0	M1
TTP	118	336	3	E	0	M1
TTP	119	0	4	E	0	M1
XTP	119	96	0
XTP	119	96	7
HLD	119	192	1	48
HLD	119	192	5	48
STR	119	288	2
SI_	119	288	2	96	48	5
STR	119	288	6
SI_	119	288	6	96	48	1
BRK	120	0	2
BRK	120	0	6
TTP	120	12	0	C	1	M1

T_REC_TAP	474
T_REC_BRK	22
T_REC_XTP	85
T_REC_HLD	78
T_REC_XHO	23
T_REC_STR	65
T_REC_BST	5
T_REC_XST	6
T_REC_TTP	106
T_REC_THO	4
T_REC_SLD	78
T_REC_ALL	946
T_NUM_TAP	736
T_NUM_BRK	27
T_NUM_HLD	105
T_NUM_SLD	78
T_NUM_ALL	946
T_JUDGE_TAP	763
T_JUDGE_HLD	196
T_JUDGE_SLD	78
T_JUDGE_ALL	1037
TTM_EACHPAIRS	177
TTM_SCR_TAP	368000
TTM_SCR_BRK	70200
TTM_SCR_HLD	105000
TTM_SCR_SLD	117000
TTM_SCR_ALL	660200
TTM_SCR_S	637800
TTM_SCR_SS	657500
TTM_RAT_ACV	10041

