VERSION	0.00.00	1.03.00
FES_MODE	0
BPM_DEF	222.000	222.000	222.000	222.000
MET_DEF	4	4
RESOLUTION	384
CLK_DEF	384
COMPATIBLE_CODE	MA2

BPM	0	0	222.000
MET	0	0	4	4

HLD	3	0	4	192
HLD	3	192	3	192
HLD	4	0	5	192
HLD	4	192	4	192
HLD	5	0	5	192
HLD	5	192	3	192
TAP	6	0	4
TAP	6	96	3
TAP	6	96	4
TAP	6	192	2
TAP	6	192	5
HLD	7	0	2	192
TAP	7	96	3
HLD	7	192	5	192
TAP	7	288	4
TAP	8	0	3
TAP	8	96	2
TAP	8	96	4
XTP	8	192	1
XTP	8	192	5
XTP	9	0	6
XTP	9	48	6
XTP	9	48	7
XTP	9	144	1
XTP	9	192	0
XTP	9	192	1
XTP	9	288	7
XTP	9	336	7
XTP	10	48	0
XTP	10	48	6
XTP	10	96	0
XTP	10	96	6
BRK	10	192	1
BRK	10	192	5
TAP	11	0	2
TAP	11	48	2
TAP	11	96	3
TAP	11	192	5
TAP	11	240	5
TAP	11	288	4
TAP	12	0	6
TAP	12	0	7
TAP	12	96	0
TAP	12	96	1
TAP	12	192	2
TAP	12	192	3
TAP	12	288	1
TAP	12	288	4
TAP	13	0	6
TAP	13	48	6
TAP	13	96	7
TAP	13	192	1
TAP	13	240	1
STR	13	288	0
SUL	13	288	0	96	192	7
XHO	15	0	7	96
XHO	15	144	0	96
XHO	15	144	6	96
XHO	15	288	1	96
XHO	15	288	5	96
XHO	16	48	2	96
XHO	16	48	4	96
XHO	16	192	5	72
XHO	16	264	3	72
XHO	16	336	4	72
XHO	17	24	2	72
XHO	17	96	4	72
XHO	17	168	3	72
XST	17	240	5
SCR	17	240	5	96	288	4
TAP	19	192	3
TAP	19	192	4
TAP	19	288	3
TAP	19	288	4
TAP	20	0	5
TAP	20	48	5
TAP	20	144	4
TAP	20	144	6
TAP	20	240	0
TAP	20	240	7
TAP	20	336	1
TAP	20	336	3
TAP	21	48	3
TAP	21	48	4
TAP	21	96	3
TAP	21	96	4
XTP	21	192	1
XTP	21	192	6
BRK	21	288	0
TAP	22	0	5
TAP	22	96	4
TAP	22	96	5
TAP	22	192	3
TAP	22	192	6
TAP	22	240	3
TAP	22	240	6
TAP	22	336	2
HLD	23	0	2	96
TAP	23	96	3
TAP	23	192	1
TAP	23	192	4
TAP	23	288	0
TAP	24	0	1
TAP	24	0	7
TAP	24	96	2
TAP	24	96	6
TAP	24	192	3
TAP	24	192	5
TAP	24	240	3
TAP	24	240	5
TAP	24	336	4
TAP	24	336	6
XTP	25	0	4
XTP	25	0	6
TAP	25	96	3
TAP	25	96	4
TAP	25	192	2
TAP	25	192	3
TAP	25	288	1
TAP	25	288	4
TAP	26	0	5
TAP	26	96	4
TAP	26	96	5
TAP	26	192	3
TAP	26	192	6
TAP	26	240	3
TAP	26	240	6
TAP	26	336	2
HLD	27	0	2	96
TAP	27	96	3
TAP	27	192	1
TAP	27	192	4
TAP	27	288	4
TAP	27	288	5
TAP	28	0	6
TAP	28	0	7
TAP	28	96	0
TAP	28	96	1
TAP	28	192	2
TAP	28	192	4
TAP	28	240	2
TAP	28	240	4
TAP	28	336	3
TAP	28	336	5
TAP	29	0	3
STR	29	0	5
SCR	29	0	5	96	96	0
XTP	29	192	1
XTP	29	288	1
XTP	30	0	2
TAP	30	0	4
TAP	30	96	6
TAP	30	192	3
XTP	30	192	5
TAP	30	288	1
HLD	31	0	2	96
HLD	31	96	3	96
HLD	31	192	4	96
TAP	31	288	5
TAP	32	0	4
XTP	32	0	6
TAP	32	96	7
XTP	32	192	1
TAP	32	192	3
TAP	32	288	0
TAP	33	0	4
TAP	33	0	6
TAP	33	96	3
TAP	33	96	4
TAP	33	192	1
TAP	33	192	3
TAP	33	288	0
TAP	34	0	4
XTP	34	0	5
TAP	34	96	7
XTP	34	192	2
TAP	34	192	3
TAP	34	288	0
HLD	35	0	1	96
HLD	35	96	3	96
HLD	35	192	4	96
TAP	35	288	6
TAP	36	0	5
TAP	36	48	5
TAP	36	96	3
TAP	36	144	3
TAP	36	192	4
TAP	36	240	4
TAP	36	288	2
XTP	37	0	1
XTP	37	0	5
XTP	37	48	1
XTP	37	48	5
XTP	37	96	1
XTP	37	96	5
BRK	37	192	0
BRK	37	192	6
STR	38	0	1
SI_	38	0	1	96	96	4
STR	38	192	6
SI_	38	192	6	96	96	3
STR	39	0	1
SI_	39	0	1	96	96	4
HLD	39	192	5	144
XTP	39	288	4
XTP	39	336	4
TAP	40	48	3
TAP	40	48	6
TAP	40	96	3
TAP	40	96	6
HLD	40	192	4	48
HLD	40	192	5	48
HLD	40	288	4	48
HLD	40	288	5	48
HLD	41	0	4	48
HLD	41	0	5	48
TAP	41	96	3
TAP	41	96	6
XTP	41	192	7
XTP	41	240	7
XTP	41	288	7
TAP	42	0	4
STR	42	0	6
SI_	42	0	6	96	96	3
STR	42	192	1
SI_	42	192	1	96	96	4
STR	43	0	6
SI_	43	0	6	96	96	3
HLD	43	192	2	96
XTP	43	288	3
XTP	43	336	3
TAP	44	48	1
TAP	44	48	4
TAP	44	96	1
TAP	44	96	4
HLD	44	192	2	48
HLD	44	192	3	48
HLD	44	288	2	48
HLD	44	288	3	48
HLD	45	0	2	48
HLD	45	0	3	48
TAP	45	96	1
TAP	45	96	4
XTP	45	192	0
XTP	45	240	0
XTP	45	288	0
STR	46	0	1
SCR	46	0	1	96	96	4
TAP	46	192	7
TAP	46	288	6
STR	47	0	5
SCL	47	0	5	96	96	2
TAP	47	192	0
TAP	47	288	1
TAP	47	288	7
TAP	48	0	2
TAP	48	48	2
TAP	48	96	3
TAP	48	192	1
TAP	48	192	4
TAP	48	288	5
TAP	48	336	5
TAP	49	0	4
TAP	49	96	3
TAP	49	96	6
XTP	49	192	7
XST	49	240	7
SSR	49	240	7	96	432	3
BRK	49	336	0
XTP	51	288	2
XTP	51	288	5
TAP	52	0	6
HLD	52	48	6	96
TAP	52	144	4
HLD	52	192	4	96
TAP	52	288	3
HLD	52	336	3	96
TAP	53	48	1
HLD	53	96	1	96
TAP	53	192	0
STR	53	288	0
SXL	53	288	0	96	288	3
STR	53	288	7
SXR	53	288	7	96	288	4
BRK	55	0	2
BRK	55	0	5
XTP	55	144	3
XTP	55	144	4
XTP	55	192	3
XTP	55	192	4
TAP	55	288	1
TAP	55	288	6
TAP	56	0	4
TAP	56	0	5
TAP	56	96	3
TAP	56	96	7
TAP	56	192	2
TAP	56	240	3
TAP	56	288	1
HLD	56	336	1	96
TAP	57	48	0
TAP	57	96	0
TAP	57	192	2
TAP	57	192	7
TAP	57	288	0
TAP	57	288	5
TAP	58	0	2
TAP	58	0	3
TAP	58	96	4
TAP	58	96	5
TAP	58	192	6
TAP	58	240	6
TAP	58	288	7
HLD	58	336	5	96
TAP	59	48	0
TAP	59	96	0
XTP	59	192	1
XTP	59	192	7
XTP	59	288	3
XTP	59	288	5
XTP	60	0	3
XTP	60	0	5
STR	60	96	2
SI_	60	96	2	96	48	4
STR	60	192	7
SI_	60	192	7	96	48	5
STR	60	288	2
SI_	60	288	2	96	48	4
STR	61	0	7
SI_	61	0	7	96	48	5
TAP	61	96	1
XTP	61	192	0
XTP	61	192	4
XTP	61	288	1
XTP	61	288	3
TAP	62	0	2
TAP	62	48	2
TAP	62	48	4
TAP	62	144	3
TAP	62	144	6
TAP	62	240	5
TAP	62	288	5
TAP	62	336	4
STR	63	0	6
SI_	63	0	6	96	48	2
BRK	63	192	1
BRK	63	192	4
TAP	64	0	2
TAP	64	0	3
TAP	64	96	0
TAP	64	96	4
TAP	64	192	5
TAP	64	240	4
TAP	64	288	6
HLD	64	336	6	96
TAP	65	48	7
TAP	65	96	7
TAP	65	192	0
TAP	65	192	5
TAP	65	288	2
TAP	65	288	3
TAP	66	0	4
TAP	66	0	5
TAP	66	96	3
TAP	66	96	7
TAP	66	192	2
TAP	66	240	3
TAP	66	288	1
HLD	66	336	1	96
TAP	67	48	0
TAP	67	96	0
XTP	67	192	2
XTP	67	192	6
XTP	67	288	1
XTP	67	288	5
TAP	68	0	2
TAP	68	0	3
TAP	68	96	0
TAP	68	96	1
TAP	68	192	6
TAP	68	192	7
TAP	68	288	4
TAP	68	288	5
TAP	69	0	2
TAP	69	0	3
TAP	69	96	0
TAP	69	96	1
TAP	69	192	6
TAP	69	192	7
TAP	69	288	0
TAP	69	288	5
TAP	70	0	1
TAP	70	48	1
TAP	70	96	3
TAP	70	144	3
TAP	70	192	2
TAP	70	288	4
TAP	70	288	6
TAP	70	336	4
TAP	70	336	6
XTP	71	48	0
XTP	71	48	7
XTP	71	144	1
XTP	71	144	4
XTP	71	192	1
XTP	71	192	4
XST	71	288	2
SCL	71	288	2	96	576	5
XTP	71	288	3
BRK	72	0	4
TTP	74	0	4	B	0	M1
TTP	74	96	5	B	0	M1
TTP	74	192	6	B	0	M1
TTP	74	288	7	B	0	M1
TTP	75	0	0	B	0	M1
TTP	75	96	1	B	0	M1
TTP	75	192	2	B	0	M1
TTP	75	192	3	B	0	M1
HLD	76	0	5	96
TAP	76	96	4
HLD	76	192	2	96
TAP	76	288	3
HLD	77	0	6	96
TAP	77	96	4
HLD	77	192	1	96
TAP	77	288	3
TAP	78	0	3
TAP	78	0	4
TAP	78	96	2
TAP	78	96	5
TAP	78	192	1
TAP	78	192	6
STR	78	288	0
SLL	78	288	0	96	192	3
STR	78	288	7
SLR	78	288	7	96	192	4
BRK	79	288	2
BRK	79	288	5
XTP	80	0	3
XTP	80	0	4
TAP	80	96	3
TAP	80	96	4
TAP	80	192	6
TAP	80	240	4
TAP	80	240	6
TAP	80	336	3
TAP	81	0	3
TAP	81	0	4
TAP	81	96	6
TAP	81	144	4
TAP	81	144	6
TAP	81	240	0
TAP	81	240	7
TAP	81	288	0
TAP	81	288	7
TAP	82	0	1
TAP	82	0	6
TAP	82	96	2
TAP	82	96	5
TAP	82	192	1
TAP	82	240	1
TAP	82	240	3
TAP	82	336	6
TAP	83	0	4
TAP	83	0	6
TAP	83	96	0
TAP	83	96	7
TAP	83	192	1
TAP	83	192	6
TAP	83	240	1
TAP	83	240	6
TAP	83	288	1
TAP	83	288	6
TAP	84	0	0
XTP	84	48	7
TAP	84	96	0
XTP	84	144	7
TAP	84	192	0
XTP	84	240	6
TAP	84	288	0
XTP	84	336	6
TAP	85	0	0
XTP	85	48	5
TAP	85	96	0
XTP	85	144	5
TAP	85	192	0
XTP	85	240	4
TAP	85	288	0
XTP	85	336	4
TAP	86	0	0
XTP	86	48	3
TAP	86	96	0
XTP	86	144	4
TAP	86	192	0
XTP	86	240	5
TAP	86	288	0
XTP	86	336	6
BRK	87	0	0
TAP	87	192	0
TAP	87	192	6
TAP	87	288	1
TAP	87	288	5
HLD	88	0	2	96
HLD	88	0	4	96
TAP	88	192	2
TAP	88	192	4
TAP	88	288	1
HLD	89	0	3	96
HLD	89	0	5	96
TAP	89	192	3
TAP	89	192	5
TAP	89	288	6
STR	90	0	2
SSL	90	0	2	96	192	6
TAP	90	192	7
TAP	90	288	7
STR	91	0	7
SSL	91	0	7	96	192	3
TAP	91	192	0
XTP	91	288	0
XHO	92	0	1	72
XHO	92	72	2	72
XHO	92	144	3	72
XHO	92	216	4	72
XTP	92	288	5
XHO	93	0	6	72
XHO	93	72	5	72
XHO	93	144	4	72
XHO	93	216	3	72
XTP	93	288	2
STR	94	0	1
SI_	94	0	1	96	48	5
STR	94	192	6
SI_	94	192	6	96	48	2
TAP	95	0	0
TAP	95	48	0
TAP	95	96	0
BRK	95	192	1
BRK	95	192	7
STR	96	0	0
SF_	96	0	0	96	288	4
STR	98	0	3
SF_	98	0	3	96	288	7
XTP	99	192	1
XTP	99	192	5
XTP	99	288	1
XTP	99	288	5
TAP	100	0	2
TAP	100	48	2
TAP	100	96	4
TAP	100	144	4
TAP	100	192	3
TAP	100	240	3
TAP	100	288	5
TAP	100	336	5
TAP	101	0	2
TAP	101	48	2
TAP	101	96	6
TAP	101	144	6
HLD	101	192	1	192
THO	102	0	0	384	C	1	M1
XTP	103	288	0
XTP	103	288	7
TAP	104	0	1
TAP	104	0	6
TAP	104	96	2
TAP	104	96	3
TAP	104	192	5
TAP	104	240	5
TAP	104	288	4
HLD	104	336	6	96
TAP	105	48	7
TAP	105	96	6
TAP	105	96	7
TAP	105	192	0
TAP	105	192	1
TAP	105	288	2
TAP	105	288	3
TAP	106	0	0
TAP	106	0	5
TAP	106	96	2
TAP	106	96	7
TAP	106	192	1
TAP	106	240	1
TAP	106	288	3
HLD	106	336	2	96
TAP	107	48	4
TAP	107	96	2
TAP	107	96	4
TAP	107	192	5
TAP	107	192	7
TAP	107	288	0
TAP	107	288	1
STR	108	0	2
SI_	108	0	2	96	48	7
STR	108	96	6
SI_	108	96	6	96	48	3
TAP	108	192	0
TAP	108	240	0
TAP	108	288	0
STR	109	0	5
SI_	109	0	5	96	48	0
STR	109	96	1
SI_	109	96	1	96	48	4
TAP	109	192	7
TAP	109	240	7
TAP	109	288	7
TAP	110	0	0
TAP	110	0	6
TAP	110	48	0
TAP	110	48	6
TAP	110	96	0
TAP	110	96	6
TAP	110	192	3
TAP	110	192	5
TAP	110	288	2
TAP	110	336	2
TAP	110	336	3
XTP	111	48	1
XTP	111	48	5
XTP	111	96	1
XTP	111	96	5
XTP	111	144	1
XTP	111	144	5
XST	111	192	1
SI_	111	192	1	96	48	5
XTP	111	192	5
STR	111	288	7
SCL	111	288	7	96	672	2
BRK	112	0	4
TTP	114	0	1	E	0	M1
TTP	114	96	2	E	0	M1
TTP	114	192	3	E	0	M1
TTP	114	288	4	E	0	M1
TTP	115	0	5	E	0	M1
TTP	115	96	6	E	0	M1
TTP	115	192	0	C	0	M1
XTP	116	0	0
HLD	116	0	7	96
HLD	116	96	6	96
HLD	116	192	5	96
HLD	116	288	4	96
HLD	117	0	3	96
HLD	117	96	2	96
TAP	117	192	1
TAP	117	288	0
TAP	117	288	7
TAP	118	0	0
TAP	118	48	0
TAP	118	96	7
TAP	118	144	7
XTP	118	192	0
XTP	118	216	7
XTP	118	240	0
XTP	118	264	7
XTP	118	288	0
XTP	118	312	7
XTP	118	336	0
XTP	118	360	7
BRK	119	0	0
XTP	119	96	1
XTP	119	96	6
TAP	119	192	2
TAP	119	192	5
TAP	119	288	3
TAP	119	288	4
TTP	120	0	0	C	1	M1
TTP	120	0	1	B	0	M1
TTP	120	0	2	B	0	M1
TTP	120	0	3	B	0	M1
TTP	120	0	4	B	0	M1
TTP	120	0	5	B	0	M1
TTP	120	0	6	B	0	M1

T_REC_TAP	377
T_REC_BRK	18
T_REC_XTP	111
T_REC_HLD	55
T_REC_XHO	21
T_REC_STR	30
T_REC_BST	0
T_REC_XST	4
T_REC_TTP	22
T_REC_THO	1
T_REC_SLD	34
T_REC_ALL	673
T_NUM_TAP	544
T_NUM_BRK	18
T_NUM_HLD	77
T_NUM_SLD	34
T_NUM_ALL	673
T_JUDGE_TAP	562
T_JUDGE_HLD	167
T_JUDGE_SLD	34
T_JUDGE_ALL	763
TTM_EACHPAIRS	173
TTM_SCR_TAP	272000
TTM_SCR_BRK	46800
TTM_SCR_HLD	77000
TTM_SCR_SLD	51000
TTM_SCR_ALL	446800
TTM_SCR_S	431650
TTM_SCR_SS	445000
TTM_RAT_ACV	10040

