VERSION	0.00.00	1.03.00
FES_MODE	0
BPM_DEF	222.000	222.000	222.000	222.000
MET_DEF	4	4
RESOLUTION	384
CLK_DEF	384
COMPATIBLE_CODE	MA2

BPM	0	0	222.000
MET	0	0	4	4

HLD	3	0	5	192
TAP	3	192	4
TAP	4	0	5
TAP	4	96	5
TAP	4	192	4
HLD	5	0	2	192
TAP	5	192	3
TAP	6	0	2
TAP	6	96	2
TAP	6	192	3
HLD	7	0	5	192
TAP	7	192	4
TAP	8	0	5
TAP	8	96	5
TAP	8	192	4
TAP	9	0	2
TAP	9	96	2
TAP	9	192	3
TAP	9	288	3
TAP	10	0	4
TAP	10	96	4
BRK	10	192	2
BRK	10	192	5
TAP	11	0	6
TAP	11	96	6
TAP	11	192	6
TAP	11	192	7
TAP	12	0	1
TAP	12	96	1
TAP	12	192	0
TAP	12	192	1
TAP	13	0	6
TAP	13	96	6
TAP	13	192	6
TAP	13	192	7
XTP	14	0	0
XTP	14	0	7
XTP	14	96	0
XTP	14	96	7
XTP	14	192	0
XTP	14	192	7
THO	15	0	0	1152	C	1	L1
TAP	19	192	0
TAP	19	288	0
TAP	20	0	0
TAP	20	0	7
TAP	20	96	0
TAP	20	96	7
TAP	20	192	1
TAP	20	192	6
TAP	20	288	1
TAP	20	288	6
TAP	21	0	2
TAP	21	0	5
TAP	21	96	2
TAP	21	96	5
BRK	21	192	3
BRK	21	192	4
TTP	22	0	4	E	0	L1
TTP	22	192	5	E	0	L1
TTP	23	0	6	E	0	L1
TTP	23	192	7	E	0	L1
TTP	24	0	0	E	0	L1
TTP	24	192	1	E	0	L1
TTP	25	0	2	E	0	L1
TTP	25	192	3	E	0	L1
TTP	26	0	4	B	0	L1
TTP	26	0	5	B	0	L1
TTP	26	192	6	B	0	L1
TTP	26	192	7	B	0	L1
TTP	27	0	0	B	0	L1
TTP	27	0	1	B	0	L1
TTP	27	192	2	B	0	L1
TTP	27	192	3	B	0	L1
TTP	28	0	4	B	0	L1
TTP	28	0	5	B	0	L1
TTP	28	192	6	B	0	L1
TTP	28	192	7	B	0	L1
TTP	29	0	0	C	1	L1
XTP	30	0	7
XTP	30	96	7
TAP	30	192	0
TAP	30	192	7
TAP	31	0	1
TAP	31	96	1
TAP	31	192	0
TAP	31	192	1
TAP	32	0	6
TAP	32	96	6
TAP	32	192	7
TAP	32	288	7
TAP	33	0	0
TAP	33	96	0
TAP	33	192	1
TAP	33	192	7
TAP	34	0	2
TAP	34	96	2
TAP	34	192	2
TAP	34	192	3
TAP	35	0	5
TAP	35	96	5
TAP	35	192	4
TAP	35	192	5
TAP	36	0	2
TAP	36	96	2
TAP	36	192	3
TAP	36	288	4
TAP	37	0	3
TAP	37	0	4
TAP	37	96	3
TAP	37	96	4
BRK	37	192	2
BRK	37	192	5
STR	38	0	6
SI_	38	0	6	96	192	3
STR	39	0	2
SI_	39	0	2	96	192	7
STR	40	0	6
SI_	40	0	6	96	192	2
TAP	41	0	1
TAP	41	96	1
XTP	41	192	0
XTP	41	192	7
STR	42	0	1
SI_	42	0	1	96	192	4
STR	43	0	5
SI_	43	0	5	96	192	0
STR	44	0	1
SI_	44	0	1	96	192	5
TAP	45	0	6
TAP	45	96	6
XTP	45	192	0
XTP	45	192	7
STR	46	0	6
SCL	46	0	6	96	192	3
TAP	47	0	2
TAP	47	96	2
TAP	47	192	1
TAP	47	192	3
STR	48	0	1
SCR	48	0	1	96	192	4
TAP	49	0	5
TAP	49	96	5
TAP	49	192	3
TAP	49	192	4
STR	50	0	3
SCL	50	0	3	96	288	0
STR	50	0	4
SCR	50	0	4	96	288	7
TAP	52	0	7
TAP	52	96	6
TAP	52	192	6
TAP	52	192	7
TAP	52	288	0
TAP	53	0	1
TAP	53	96	0
TAP	53	96	1
TAP	53	192	7
TAP	53	288	0
TAP	53	288	7
TAP	54	0	0
TAP	54	0	7
TAP	54	96	1
TAP	54	96	6
TAP	54	192	1
TAP	54	192	6
TAP	54	288	2
TAP	54	288	5
BRK	55	0	2
BRK	55	0	5
TAP	56	0	6
TAP	56	96	6
TAP	56	192	6
TAP	56	192	7
TAP	56	288	6
TAP	56	288	7
TAP	57	0	1
TAP	57	96	1
TAP	57	192	0
TAP	57	192	1
TAP	57	288	0
TAP	57	288	1
TAP	58	0	2
TAP	58	96	2
TAP	58	192	3
TAP	58	288	3
TAP	59	0	4
TAP	59	96	4
TAP	59	192	3
TAP	59	192	5
HLD	60	0	6	96
TAP	60	96	7
TAP	60	192	6
TAP	60	192	7
HLD	61	0	1	96
TAP	61	96	0
TAP	61	192	0
TAP	61	192	1
TAP	62	0	2
TAP	62	96	2
TAP	62	192	3
TAP	62	288	3
TAP	62	288	4
TAP	63	0	2
TAP	63	0	5
TAP	64	0	2
TAP	64	96	2
TAP	64	192	2
TAP	64	192	3
TAP	64	288	2
TAP	64	288	3
TAP	65	0	5
TAP	65	96	5
TAP	65	192	4
TAP	65	192	5
TAP	65	288	4
TAP	65	288	5
TAP	66	0	6
TAP	66	96	6
TAP	66	192	7
TAP	66	288	7
TAP	67	0	0
TAP	67	96	0
TAP	67	192	1
TAP	67	192	7
HLD	68	0	2	96
TAP	68	96	3
TAP	68	192	2
TAP	68	192	3
HLD	69	0	5	96
TAP	69	96	4
TAP	69	192	4
TAP	69	192	5
TAP	70	0	6
TAP	70	96	6
TAP	70	192	7
TAP	70	288	7
TAP	71	0	0
TAP	71	96	0
TAP	71	96	7
BRK	71	192	1
BRK	71	192	6
TAP	72	0	5
TAP	72	96	5
TAP	72	192	4
TAP	72	288	4
TAP	73	0	3
TAP	73	96	3
TAP	73	192	2
TAP	73	288	2
TAP	74	0	1
TAP	74	96	1
TAP	74	192	0
TAP	74	288	0
TAP	75	0	7
TAP	75	96	7
TAP	75	192	1
TAP	75	192	6
TAP	76	0	2
TAP	76	96	3
TAP	76	192	4
TAP	76	288	5
TAP	77	0	6
TAP	77	96	7
TAP	77	192	0
TAP	77	288	1
TAP	78	0	2
TAP	78	48	2
TAP	78	96	2
TAP	78	192	3
TAP	78	240	3
TAP	78	288	3
BRK	79	0	3
BRK	79	0	4
STR	80	0	5
SI_	80	0	5	96	192	0
TAP	81	0	1
TAP	81	96	1
TAP	81	192	0
TAP	81	192	1
STR	82	0	2
SI_	82	0	2	96	192	7
TAP	83	0	6
TAP	83	96	6
TAP	83	192	6
TAP	83	192	7
STR	84	0	5
SI_	84	0	5	96	192	0
TAP	85	0	1
TAP	85	96	1
TAP	85	192	0
TAP	85	192	1
STR	86	0	2
SI_	86	0	2	96	192	7
TAP	87	0	6
TAP	87	96	6
BRK	87	192	0
BRK	87	192	7
HLD	88	0	1	192
TAP	88	192	0
HLD	89	0	6	192
TAP	89	192	7
HLD	90	0	1	192
TAP	90	192	0
HLD	91	0	6	192
TAP	91	192	7
HLD	92	0	4	96
HLD	92	0	5	96
TAP	92	192	4
TAP	92	192	5
HLD	93	0	2	96
HLD	93	0	3	96
TAP	93	192	2
TAP	93	192	3
HLD	94	0	4	96
HLD	94	0	5	96
HLD	94	192	2	96
HLD	94	192	3	96
BRK	95	0	1
BRK	95	0	4
XHO	96	0	1	384
HLD	97	0	0	384
HLD	98	0	7	384
TAP	99	0	6
TAP	99	192	4
TAP	99	192	5
TAP	100	0	5
TAP	100	96	5
TAP	100	192	4
TAP	100	192	5
TAP	101	0	2
TAP	101	96	2
TAP	101	192	2
TAP	101	192	3
THO	102	0	0	336	C	1	L1
TAP	104	0	7
TAP	104	96	7
TAP	104	192	6
TAP	104	288	6
TAP	104	288	7
TAP	105	0	1
TAP	105	96	1
TAP	105	192	0
TAP	105	192	1
TAP	105	288	0
TAP	105	288	1
TAP	106	0	2
TAP	106	96	2
TAP	106	192	3
TAP	106	288	3
TAP	107	0	4
TAP	107	96	4
TAP	107	192	3
TAP	107	192	5
HLD	108	0	6	96
TAP	108	96	7
TAP	108	192	0
TAP	108	192	5
HLD	109	0	1	96
TAP	109	96	0
TAP	109	192	2
TAP	109	192	7
TAP	110	0	2
TAP	110	96	2
TAP	110	192	3
TAP	110	288	3
TAP	111	0	4
TAP	111	96	3
TAP	111	96	4
BRK	111	192	2
BRK	111	192	5
TAP	112	0	2
TAP	112	96	2
TAP	112	192	3
TAP	112	288	3
TAP	113	0	4
TAP	113	96	4
TAP	113	192	5
TAP	113	288	5
TAP	114	0	6
TAP	114	96	6
TAP	114	192	7
TAP	114	288	7
TAP	115	0	0
TAP	115	96	0
TAP	115	192	1
TAP	115	192	6
TAP	116	0	5
TAP	116	96	4
TAP	116	192	3
TAP	116	288	2
TAP	117	0	1
TAP	117	96	0
TAP	117	192	7
TAP	117	288	6
TAP	118	0	5
TAP	118	48	5
TAP	118	96	5
TAP	118	192	4
TAP	118	240	4
TAP	118	288	4
STR	119	0	3
SCL	119	0	3	96	192	0
STR	119	0	4
SCR	119	0	4	96	192	7
TTP	120	0	0	C	1	L1

T_REC_TAP	296
T_REC_BRK	18
T_REC_XTP	12
T_REC_HLD	23
T_REC_XHO	1
T_REC_STR	16
T_REC_BST	0
T_REC_XST	0
T_REC_TTP	22
T_REC_THO	2
T_REC_SLD	16
T_REC_ALL	406
T_NUM_TAP	346
T_NUM_BRK	18
T_NUM_HLD	26
T_NUM_SLD	16
T_NUM_ALL	406
T_JUDGE_TAP	364
T_JUDGE_HLD	111
T_JUDGE_SLD	16
T_JUDGE_ALL	491
TTM_EACHPAIRS	79
TTM_SCR_TAP	173000
TTM_SCR_BRK	46800
TTM_SCR_HLD	26000
TTM_SCR_SLD	24000
TTM_SCR_ALL	269800
TTM_SCR_S	260000
TTM_SCR_SS	268000
TTM_RAT_ACV	10067

