VERSION	0.00.00	1.03.00
FES_MODE	0
BPM_DEF	222.000	222.000	222.000	222.000
MET_DEF	4	4
RESOLUTION	384
CLK_DEF	384
COMPATIBLE_CODE	MA2

BPM	0	0	222.000
MET	0	0	4	4

TAP	3	0	0
TAP	5	0	0
TAP	7	0	7
BRK	9	0	7
TAP	11	0	0
TAP	12	0	0
TAP	12	0	1
TAP	13	0	7
XTP	14	0	6
XTP	14	0	7
XHO	15	0	0	288
XHO	17	0	7	288
XHO	19	0	0	384
XHO	19	0	7	384
XTP	21	0	0
XTP	21	0	7
TAP	22	0	1
TAP	22	192	1
TAP	23	0	1
TAP	24	0	2
TAP	24	192	2
TAP	25	0	2
TAP	26	0	3
TAP	26	192	3
TAP	27	0	3
TAP	28	0	4
TAP	28	192	4
BRK	29	0	4
TAP	30	0	5
TAP	30	192	5
TAP	31	0	5
TAP	32	0	6
TAP	32	192	6
TAP	33	0	6
TAP	34	0	7
TAP	34	192	7
TAP	35	0	7
TAP	36	0	0
TAP	36	192	0
XTP	37	0	0
XTP	37	0	7
STR	38	0	7
SI_	38	0	7	96	288	4
TAP	40	0	3
TAP	40	192	3
TAP	41	0	3
TAP	41	192	3
STR	42	0	3
SI_	42	0	3	96	288	0
TAP	44	0	7
TAP	44	192	7
TAP	45	0	0
TAP	45	0	7
TAP	46	0	6
TAP	46	192	6
TAP	47	0	6
TAP	47	0	7
TAP	48	0	5
TAP	48	192	5
TAP	49	0	4
TAP	49	0	5
HLD	50	0	2	384
HLD	50	0	3	384
HLD	52	0	0	384
HLD	52	0	1	384
TAP	54	0	7
TAP	54	192	7
BRK	55	0	0
BRK	55	0	7
TAP	56	0	0
TAP	56	192	0
TAP	57	0	1
TAP	57	192	1
TAP	58	0	2
TAP	58	192	2
TAP	59	0	2
TAP	59	0	3
TAP	60	0	4
TAP	60	192	4
TAP	61	0	5
TAP	61	192	5
TAP	62	0	6
TAP	62	192	6
TAP	63	0	6
TAP	63	0	7
TAP	64	0	7
TAP	64	192	7
TAP	65	0	6
TAP	65	192	6
TAP	66	0	5
TAP	66	192	5
TAP	67	0	3
TAP	67	0	4
TAP	67	192	3
TAP	67	192	4
TAP	68	0	3
TAP	68	192	3
TAP	69	0	2
TAP	69	192	2
TAP	70	0	1
TAP	70	192	1
XTP	71	0	0
XTP	71	0	7
TTP	72	0	0	B	0	L1
TTP	73	0	7	B	0	L1
TTP	74	0	1	B	0	L1
TTP	75	0	6	B	0	L1
TTP	76	0	2	B	0	L1
TTP	77	0	5	B	0	L1
TTP	78	0	3	B	0	L1
TTP	79	0	0	C	1	L1
BRK	80	0	7
TAP	80	96	7
TAP	80	192	7
TAP	81	0	6
TAP	81	0	7
TAP	82	0	5
TAP	82	96	5
TAP	82	192	5
TAP	83	0	4
TAP	83	0	5
TAP	84	0	2
TAP	84	96	2
TAP	84	192	2
TAP	85	0	2
TAP	85	0	3
TAP	86	0	1
TAP	86	96	1
TAP	86	192	1
TAP	87	0	0
TAP	87	0	1
TAP	88	0	7
TAP	88	192	7
TAP	89	0	6
TAP	89	0	7
TAP	89	192	6
TAP	89	192	7
TAP	90	0	0
TAP	90	192	0
TAP	91	0	0
TAP	91	0	1
TAP	91	192	0
TAP	91	192	1
BRK	92	0	7
BRK	93	0	0
HLD	94	0	0	384
HLD	94	0	7	384
HLD	96	0	6	384
HLD	96	0	7	384
HLD	98	0	4	384
HLD	98	0	5	384
TAP	100	0	2
TAP	100	0	3
TAP	100	192	2
TAP	100	192	3
TAP	101	0	2
TAP	101	0	3
XHO	102	0	0	384
XHO	102	0	1	384
TAP	104	0	0
TAP	104	96	0
TAP	104	192	0
TAP	105	0	1
TAP	105	96	1
TAP	105	192	1
TAP	106	0	2
TAP	106	96	2
TAP	106	192	2
TAP	107	0	3
TAP	107	96	3
TAP	107	192	3
TAP	107	192	4
TAP	108	0	4
TAP	108	96	4
TAP	108	192	4
TAP	109	0	5
TAP	109	96	5
TAP	109	192	5
TAP	110	0	6
TAP	110	96	6
TAP	110	192	6
XTP	111	0	0
XTP	111	0	7
HLD	112	0	1	768
HLD	112	0	6	768
TAP	116	0	6
TAP	116	96	6
TAP	116	192	6
TAP	116	192	7
TAP	117	0	5
TAP	117	96	5
TAP	117	192	4
TAP	117	192	5
TAP	118	0	3
TAP	118	96	3
TAP	118	192	4
TAP	118	288	4
TAP	119	0	3
TAP	119	0	4
TAP	119	96	3
TAP	119	96	4
TAP	119	192	2
TAP	119	192	5
TAP	119	288	2
TAP	119	288	5
BRK	120	0	1
BRK	120	0	6

T_REC_TAP	158
T_REC_BRK	9
T_REC_XTP	10
T_REC_HLD	12
T_REC_XHO	6
T_REC_STR	2
T_REC_BST	0
T_REC_XST	0
T_REC_TTP	8
T_REC_THO	0
T_REC_SLD	2
T_REC_ALL	207
T_NUM_TAP	178
T_NUM_BRK	9
T_NUM_HLD	18
T_NUM_SLD	2
T_NUM_ALL	207
T_JUDGE_TAP	187
T_JUDGE_HLD	156
T_JUDGE_SLD	2
T_JUDGE_ALL	345
TTM_EACHPAIRS	41
TTM_SCR_TAP	89000
TTM_SCR_BRK	23400
TTM_SCR_HLD	18000
TTM_SCR_SLD	3000
TTM_SCR_ALL	133400
TTM_SCR_S	128550
TTM_SCR_SS	132500
TTM_RAT_ACV	10067

