VERSION	0.00.00	1.03.00
FES_MODE	0
BPM_DEF	160.000	160.000	160.000	160.000
MET_DEF	4	4
RESOLUTION	384
CLK_DEF	384
COMPATIBLE_CODE	MA2

BPM	0	0	160.000
MET	0	0	4	4

STR	2	0	2
SCL	2	0	2	96	288	4
TAP	2	96	3
TAP	2	288	3
STR	3	0	3
SCL	3	0	3	96	288	5
TAP	3	96	4
TAP	3	288	4
STR	4	0	4
SCL	4	0	4	96	288	6
TAP	4	96	5
TAP	4	288	5
STR	5	0	5
SCR	5	0	5	96	288	3
TAP	5	96	4
TAP	5	288	4
STR	6	0	4
SCR	6	0	4	96	288	2
TAP	6	96	3
TAP	6	288	3
STR	7	0	3
SCR	7	0	3	96	288	1
TAP	7	96	2
TAP	7	288	2
STR	8	0	2
SXL	8	0	2	96	288	5
TAP	8	96	6
TAP	8	288	6
STR	9	0	6
SUL	9	0	6	96	144	1
HLD	9	96	7	192
STR	9	288	0
SI_	9	288	0	96	48	4
TAP	10	0	0
TAP	10	0	7
TAP	10	96	5
TAP	10	144	4
TAP	10	144	6
TAP	10	240	2
TAP	10	288	1
STR	10	288	3
SI_	10	288	3	96	48	7
HLD	11	0	0	144
TAP	11	144	7
TAP	11	192	6
STR	11	240	5
SUL	11	240	5	96	144	3
TAP	11	336	1
TAP	12	96	0
TAP	12	144	7
TAP	12	192	1
STR	12	240	2
SUR	12	240	2	96	144	4
TAP	12	288	5
HLD	12	336	6	192
TAP	13	144	5
TAP	13	192	4
STR	13	240	7
SSR	13	240	7	96	144	3
TAP	13	288	2
HLD	13	336	1	192
TAP	14	144	2
TAP	14	192	3
STR	14	240	0
SSL	14	240	0	96	144	4
TAP	14	288	5
HLD	14	336	6	192
TAP	15	144	2
STR	15	288	1
SCL	15	288	1	96	48	6
STR	15	288	5
SCL	15	288	5	96	48	2
TAP	16	0	1
TAP	16	0	5
TTP	16	144	0	E	0	M1
TTP	16	144	1	E	0	M1
TTP	16	144	7	E	0	M1
TTP	16	288	2	B	0	M1
TTP	16	288	5	B	0	M1
TTP	17	48	4	E	0	M1
TAP	17	192	3
STR	17	192	4
SUL	17	192	4	96	96	3
STR	17	288	3
SCL	17	288	3	96	192	4
TTP	18	0	0	C	1	M1
TAP	18	288	3
TAP	18	288	4
HLD	19	0	2	144
TAP	19	48	3
TAP	19	96	4
HLD	19	144	5	240
TTP	19	192	0	E	0	M1
TTP	19	216	7	E	0	M1
TTP	19	240	6	E	0	M1
TTP	19	264	5	E	0	M1
TTP	19	288	4	E	0	M1
HLD	20	0	2	144
TAP	20	48	3
TAP	20	96	4
HLD	20	144	5	240
TTP	20	192	1	E	0	M1
TTP	20	216	0	E	0	M1
TTP	20	240	7	E	0	M1
TTP	20	264	6	E	0	M1
TTP	20	288	5	E	0	M1
TAP	21	0	2
TAP	21	48	3
TAP	21	96	4
TAP	21	144	5
TAP	21	192	1
TAP	21	240	2
TAP	21	288	3
TAP	21	336	4
HLD	22	0	5	144
TAP	22	48	4
TAP	22	96	3
HLD	22	144	2	240
TTP	22	192	0	E	0	M1
TTP	22	216	1	E	0	M1
TTP	22	240	2	E	0	M1
TTP	22	264	3	E	0	M1
TTP	22	288	4	E	0	M1
HLD	23	0	5	144
TAP	23	48	4
TAP	23	96	3
HLD	23	144	2	240
TTP	23	192	7	E	0	M1
TTP	23	216	0	E	0	M1
TTP	23	240	1	E	0	M1
TTP	23	264	2	E	0	M1
TTP	23	288	3	E	0	M1
HLD	24	0	5	144
TAP	24	48	4
TAP	24	96	3
HLD	24	144	2	240
TTP	24	192	6	E	0	M1
TTP	24	216	7	E	0	M1
TTP	24	240	0	E	0	M1
TTP	24	264	1	E	0	M1
TTP	24	288	2	E	0	M1
HLD	25	0	5	144
TAP	25	48	4
TAP	25	96	3
STR	25	144	2
SI_	25	144	2	96	48	4
TTP	25	288	0	C	0	M1
TAP	26	0	3
STR	26	0	5
SI_	26	0	5	96	48	3
TAP	26	96	2
STR	26	144	1
SI_	26	144	1	96	48	5
TAP	26	240	5
HLD	26	288	6	96
TAP	27	0	4
TAP	27	48	3
TAP	27	96	2
TAP	27	144	1
STR	27	144	3
SI_	27	144	3	96	48	7
TAP	27	240	0
STR	27	288	0
SCR	27	288	0	96	48	3
HLD	28	0	5	96
TAP	28	96	4
TAP	28	144	3
STR	28	144	6
SI_	28	144	6	96	48	1
TAP	28	240	2
STR	28	288	2
SI_	28	288	2	96	48	7
TAP	29	0	3
TAP	29	48	4
TAP	29	96	5
TAP	29	144	4
TAP	29	144	6
TAP	29	240	0
TAP	29	240	7
TAP	29	288	1
TAP	29	288	6
STR	30	0	3
SI_	30	0	3	96	48	1
TAP	30	0	4
TAP	30	96	7
STR	30	144	6
SI_	30	144	6	96	48	3
TAP	30	240	2
HLD	30	288	1	96
TAP	31	0	3
TAP	31	48	4
TAP	31	96	5
STR	31	144	4
SI_	31	144	4	96	48	0
TAP	31	144	6
TAP	31	240	7
STR	31	288	7
SCL	31	288	7	96	48	4
HLD	32	0	2	96
TAP	32	96	3
TAP	32	144	1
HLD	32	144	4	96
TAP	32	240	3
STR	32	288	2
SCR	32	288	2	96	48	5
TAP	32	288	5
TAP	33	0	6
TAP	33	48	7
TAP	33	96	0
TAP	33	144	1
TAP	33	144	6
TAP	33	240	1
TAP	33	240	6
STR	33	288	3
SI_	33	288	3	96	48	0
STR	33	288	4
SI_	33	288	4	96	48	7
TAP	34	0	3
TAP	34	0	4
TAP	34	96	1
TAP	34	96	6
STR	34	144	1
SCR	34	144	1	96	96	5
TAP	34	144	6
STR	34	240	5
SCR	34	240	5	96	96	1
TAP	34	336	1
TAP	35	48	3
HLD	35	96	3	96
STR	35	192	4
SI_	35	192	4	96	48	0
STR	35	288	5
SCR	35	288	5	96	144	3
TAP	36	0	4
TAP	36	144	0
STR	36	240	2
SXL	36	240	2	96	240	5
STR	36	240	6
SXL	36	240	6	96	240	1
TAP	37	288	0
TAP	37	288	4
TAP	37	336	3
TAP	37	336	7
STR	38	0	2
SCR	38	0	2	96	48	5
TAP	38	0	6
STR	38	96	5
SCL	38	96	5	96	48	2
TAP	38	192	7
STR	38	288	0
SI_	38	288	0	96	48	3
STR	39	0	7
SI_	39	0	7	96	48	4
TAP	39	96	3
HLD	39	144	3	96
STR	39	240	2
SCL	39	240	2	96	336	4
THO	40	0	0	384	C	0	M1
STR	41	0	3
SI_	41	0	3	96	48	7
HLD	41	192	1	96
HLD	41	192	5	96
STR	42	0	2
SLR	42	0	2	96	96	1
TAP	42	48	4
TAP	42	96	5
HLD	42	144	6	96
TAP	42	240	7
TAP	42	288	0
TAP	42	288	5
STR	43	0	1
SI_	43	0	1	96	48	4
STR	43	48	4
SI_	43	48	4	96	48	2
TAP	43	96	5
HLD	43	144	6	96
TAP	43	240	0
TAP	43	288	1
TAP	43	288	7
STR	44	0	5
SLL	44	0	5	96	96	6
TAP	44	48	3
TAP	44	96	2
HLD	44	144	1	96
TAP	44	240	0
TAP	44	288	2
TAP	44	288	7
STR	45	0	6
SI_	45	0	6	96	48	3
STR	45	48	3
SI_	45	48	3	96	48	5
TAP	45	96	2
HLD	45	144	1	96
TAP	45	240	7
TAP	45	288	0
TAP	45	288	6
STR	46	0	1
SLR	46	0	1	96	96	7
TAP	46	48	3
TAP	46	96	4
HLD	46	144	5	96
TAP	46	240	0
TAP	46	288	1
TAP	46	288	7
STR	47	0	1
SI_	47	0	1	96	48	4
STR	47	48	4
SI_	47	48	4	96	48	2
TAP	47	96	5
HLD	47	144	6	96
TAP	47	240	0
TAP	47	288	1
TAP	47	288	7
STR	48	0	6
SLL	48	0	6	96	96	0
TAP	48	48	4
TAP	48	96	3
HLD	48	144	2	96
TAP	48	240	7
TAP	48	288	0
TAP	48	288	6
STR	49	0	6
SI_	49	0	6	96	48	3
STR	49	48	3
SI_	49	48	3	96	48	5
TAP	49	96	2
HLD	49	144	1	96
TAP	49	240	7
TAP	49	288	0
TAP	49	288	6
TTP	50	0	0	C	0	M1
HLD	50	144	4	96
TAP	50	240	3
TAP	50	288	1
TAP	50	288	6
TAP	51	0	0
TAP	51	0	1
STR	51	48	0
SCR	51	48	0	96	48	3
TAP	51	48	7
TAP	51	96	6
TAP	51	96	7
HLD	51	144	5	96
TAP	51	240	4
TAP	51	288	7
TAP	51	336	6
TAP	52	0	4
TAP	52	0	5
TAP	52	48	3
STR	52	48	4
SCR	52	48	4	96	48	7
TAP	52	96	2
TAP	52	96	3
HLD	52	144	1	96
TAP	52	240	0
TAP	52	288	1
TAP	52	336	2
TAP	53	0	2
TAP	53	0	3
STR	53	48	3
SCL	53	48	3	96	48	0
TAP	53	48	4
TAP	53	96	4
TAP	53	96	5
HLD	53	144	6	96
TAP	53	240	7
TAP	53	288	4
TAP	53	336	5
TAP	54	0	6
TAP	54	0	7
TAP	54	48	0
STR	54	48	7
SCL	54	48	7	96	48	4
TAP	54	96	0
TAP	54	96	1
HLD	54	144	2	96
TAP	54	240	3
TAP	54	288	2
TAP	54	336	1
TAP	55	0	0
TAP	55	0	1
STR	55	48	2
SI_	55	48	2	96	48	7
TAP	55	48	7
TAP	55	96	3
TAP	55	96	6
HLD	55	144	5	96
TAP	55	240	4
TAP	55	288	5
TAP	55	336	6
TAP	56	0	6
TAP	56	0	7
TAP	56	48	0
STR	56	48	5
SI_	56	48	5	96	48	0
TAP	56	96	1
TAP	56	96	4
HLD	56	144	2	96
TAP	56	240	3
TAP	56	288	3
TAP	56	288	4
STR	57	0	1
SI_	57	0	1	96	48	4
TAP	57	48	0
TAP	57	96	1
STR	57	144	6
SI_	57	144	6	96	48	3
TAP	57	192	7
TAP	57	240	6
TAP	57	288	2
TAP	57	336	1
STR	58	0	0
SCR	58	0	0	96	96	6
STR	58	48	3
SCR	58	48	3	96	126	3
TAP	58	96	0
BRK	58	288	7
TAP	59	0	1
TAP	59	0	5
TAP	59	96	1
STR	59	96	3
SI_	59	96	3	96	48	7
TAP	59	144	3
TAP	59	192	1
TAP	59	288	1
STR	59	288	6
SCL	59	288	6	96	48	3
TAP	59	336	6
TAP	60	0	2
TAP	60	96	2
TAP	60	144	3
TAP	60	192	2
STR	60	240	4
SCR	60	240	4	96	144	2
TAP	60	288	2
TAP	60	336	4
TAP	61	0	3
TAP	61	96	3
TAP	61	144	7
TAP	61	192	3
TAP	61	240	5
STR	61	288	3
SI_	61	288	3	96	48	0
TAP	61	336	1
TAP	62	0	4
TAP	62	96	4
TAP	62	144	3
TAP	62	192	4
STR	62	240	0
SCR	62	240	0	96	96	4
TAP	62	288	4
TAP	62	336	0
TAP	63	0	5
TAP	63	96	5
TAP	63	144	4
TAP	63	192	5
STR	63	240	0
SCR	63	240	0	96	120	5
TAP	63	288	5
TAP	63	336	0
TAP	64	0	6
TAP	64	96	6
STR	64	192	4
SI_	64	192	4	96	48	0
TAP	64	192	6
TAP	64	288	6
STR	65	0	7
SCL	65	0	7	96	48	4
TAP	65	48	0
TAP	65	96	1
STR	65	144	2
SCL	65	144	2	96	48	7
TAP	65	192	3
TAP	65	240	4
STR	65	288	5
SCL	65	288	5	96	48	2
TAP	65	336	6
TAP	66	0	7
STR	66	48	0
SCL	66	48	0	96	48	5
TAP	66	96	1
TAP	66	144	2
STR	66	192	3
SUR	66	192	3	96	96	4
STR	66	288	4
SCR	66	288	4	96	192	3
TTP	67	0	0	C	1	M1
TAP	67	288	3
TAP	67	288	4
HLD	68	0	5	48
HLD	68	48	4	48
HLD	68	96	3	48
HLD	68	144	2	240
TTP	68	288	4	E	0	M1
HLD	69	0	5	48
HLD	69	48	4	48
HLD	69	96	3	48
HLD	69	144	2	240
TTP	69	288	4	E	0	M1
HLD	70	0	5	48
HLD	70	48	4	48
HLD	70	96	3	48
HLD	70	144	2	240
TAP	70	192	5
TAP	70	240	5
TAP	70	288	5
TAP	70	336	5
TAP	71	0	4
TAP	71	48	2
TAP	71	96	3
TAP	71	144	5
TAP	71	168	5
TAP	71	192	4
TAP	71	240	6
TAP	71	288	4
TAP	71	336	3
TAP	71	336	5
TAP	72	0	2
TAP	72	48	5
TAP	72	96	4
TAP	72	144	2
TAP	72	168	2
TAP	72	192	3
TAP	72	240	1
TAP	72	288	3
TAP	72	336	2
TAP	72	336	4
TAP	73	0	5
TAP	73	48	2
TAP	73	96	3
TAP	73	144	5
TAP	73	168	5
TAP	73	192	4
TAP	73	240	6
TAP	73	288	4
TAP	73	336	3
TAP	73	336	5
TAP	74	0	2
TAP	74	48	5
TAP	74	96	4
STR	74	144	3
SUR	74	144	3	96	96	4
TAP	74	192	2
TAP	75	0	7
TAP	75	48	6
TAP	75	96	5
TAP	75	144	4
TAP	75	216	1
TAP	75	240	0
TAP	75	264	1
TAP	75	312	5
TAP	75	336	4
TAP	75	360	5
TAP	76	0	3
TAP	76	48	2
TAP	76	96	1
TAP	76	144	0
TAP	76	192	6
TAP	76	216	7
TAP	76	240	6
TAP	76	264	7
TAP	76	312	2
TAP	76	336	3
TAP	76	360	2
TAP	77	0	4
TAP	77	48	5
TAP	77	96	6
TAP	77	144	7
TAP	77	192	1
TAP	77	216	1
TAP	77	264	3
TAP	77	264	4
TAP	77	312	6
TAP	77	336	6
TAP	78	0	0
TAP	78	48	1
TAP	78	96	2
TAP	78	144	3
TAP	78	192	6
TAP	78	216	6
TAP	78	240	3
TAP	78	264	3
TAP	78	288	4
TAP	78	312	4
TAP	78	336	1
TAP	78	360	1
TAP	79	0	7
TAP	79	48	6
TAP	79	96	5
TAP	79	144	4
TAP	79	144	6
TAP	79	192	3
TAP	79	216	4
TAP	79	264	4
TAP	79	312	2
TAP	79	360	0
TAP	80	0	0
TAP	80	48	1
TAP	80	96	2
TAP	80	144	1
TAP	80	144	3
TAP	80	192	4
TAP	80	216	3
TAP	80	240	4
TAP	80	264	3
TAP	80	312	4
TAP	80	312	5
TAP	80	360	6
TAP	81	0	6
TAP	81	48	0
TAP	81	96	7
TAP	81	144	2
TAP	81	144	3
TAP	81	192	4
TAP	81	216	4
TAP	81	240	3
TAP	81	288	1
TAP	81	288	5
TAP	81	336	2
TAP	81	336	6
TAP	82	0	5
TAP	82	24	4
TAP	82	48	6
TAP	82	96	2
TAP	82	120	3
TAP	82	144	1
TAP	82	192	4
TAP	82	216	3
TAP	82	240	4
TAP	82	288	1
TAP	82	288	6
TAP	83	0	2
TAP	83	0	3
TAP	83	48	1
TAP	83	96	0
STR	83	144	1
SCR	83	144	1	96	48	4
TAP	83	144	7
TAP	83	240	0
TAP	83	288	7
TAP	83	336	6
TAP	84	0	4
TAP	84	0	5
TAP	84	48	6
TAP	84	96	7
TAP	84	144	0
STR	84	144	6
SCL	84	144	6	96	48	3
TAP	84	240	7
TAP	84	288	0
TAP	84	336	1
TAP	85	0	2
TAP	85	0	4
TAP	85	48	3
TAP	85	96	4
TAP	85	144	5
TAP	85	192	2
TAP	85	192	6
TAP	85	240	2
STR	85	240	6
SI_	85	240	6	96	48	2
STR	85	336	1
SI_	85	336	1	96	48	4
TAP	85	336	6
TAP	86	48	1
STR	86	48	5
SI_	86	48	5	96	48	0
STR	86	144	3
SI_	86	144	3	96	48	7
TAP	86	144	5
TAP	86	240	6
TAP	86	288	5
TAP	86	336	4
TAP	87	0	2
TAP	87	0	3
TAP	87	48	1
TAP	87	96	0
TAP	87	144	1
STR	87	144	7
SCL	87	144	7	96	48	4
TAP	87	240	2
TAP	87	288	2
TAP	87	336	3
TAP	88	0	4
TAP	88	0	5
TAP	88	48	6
TAP	88	96	7
STR	88	144	0
SCR	88	144	0	96	48	3
TAP	88	144	6
TAP	88	240	5
TAP	88	288	5
TAP	88	336	4
TAP	89	0	3
TAP	89	0	5
TAP	89	48	4
TAP	89	96	3
TAP	89	144	2
TAP	89	144	4
TAP	89	240	3
TAP	89	288	3
TAP	89	336	4
TAP	90	0	3
STR	90	0	5
SI_	90	0	5	96	48	2
STR	90	96	1
SI_	90	96	1	96	48	6
STR	90	192	4
SCL	90	192	4	96	48	1
SCR	90	192	4	96	48	7
HLD	91	0	0	768
STR	91	96	2
SCR	91	96	2	96	48	4
TAP	91	288	5
STR	92	96	6
SCL	92	96	6	96	48	4
TAP	92	288	3
HLD	93	0	6	384
STR	93	96	5
SCL	93	96	5	96	48	3
TAP	93	288	2
HLD	94	0	1	384
STR	94	96	2
SCR	94	96	2	96	48	4
TAP	94	288	5
HLD	95	0	5	384
STR	95	96	4
SCL	95	96	4	96	48	2
TAP	95	288	1
HLD	96	0	2	384
STR	96	96	3
SCR	96	96	3	96	48	5
TAP	96	288	6
HLD	97	0	4	480
STR	97	96	1
SCR	97	96	1	96	48	3
TAP	97	288	5
STR	98	96	3
SI_	98	96	3	96	48	0
TAP	98	240	4
TAP	98	288	3
TAP	98	288	5

T_REC_TAP	446
T_REC_BRK	1
T_REC_XTP	0
T_REC_HLD	58
T_REC_XHO	0
T_REC_STR	99
T_REC_BST	0
T_REC_XST	0
T_REC_TTP	37
T_REC_THO	1
T_REC_SLD	100
T_REC_ALL	742
T_NUM_TAP	582
T_NUM_BRK	1
T_NUM_HLD	59
T_NUM_SLD	100
T_NUM_ALL	742
T_JUDGE_TAP	583
T_JUDGE_HLD	200
T_JUDGE_SLD	100
T_JUDGE_ALL	883
TTM_EACHPAIRS	90
TTM_SCR_TAP	291000
TTM_SCR_BRK	2600
TTM_SCR_HLD	59000
TTM_SCR_SLD	150000
TTM_SCR_ALL	502600
TTM_SCR_S	487450
TTM_SCR_SS	502500
TTM_RAT_ACV	10001

