VERSION	0.00.00	1.03.00
FES_MODE	0
BPM_DEF	160.000	160.000	160.000	160.000
MET_DEF	4	4
RESOLUTION	384
CLK_DEF	384
COMPATIBLE_CODE	MA2

BPM	0	0	160.000
MET	0	0	4	4

HLD	2	0	3	384
STR	2	288	5
SCL	2	288	5	96	96	3
TAP	3	288	3
HLD	4	0	4	384
STR	4	288	2
SCR	4	288	2	96	96	4
TAP	5	192	2
STR	5	288	2
SCR	5	288	2	96	96	4
TAP	6	192	2
STR	6	288	2
SCR	6	288	2	96	96	4
TAP	7	192	4
TAP	7	288	4
HLD	8	0	3	384
HLD	8	192	4	384
TTP	9	192	2	B	0	M1
HLD	10	0	1	96
HLD	10	0	3	96
HLD	10	144	1	96
HLD	10	144	3	96
STR	10	288	1
SCR	10	288	1	96	96	3
TAP	10	288	3
HLD	11	0	4	192
TAP	11	288	5
HLD	12	0	4	96
HLD	12	0	6	96
HLD	12	144	4	96
HLD	12	144	6	96
TAP	12	288	4
STR	12	288	6
SCL	12	288	6	96	96	4
HLD	13	0	3	192
STR	13	288	2
SCR	13	288	2	96	96	4
HLD	14	0	5	192
STR	14	288	6
SCL	14	288	6	96	96	4
HLD	15	0	3	192
STR	15	288	2
SXR	15	288	2	96	288	3
STR	15	288	4
SXL	15	288	4	96	288	3
BRK	17	0	3
TAP	18	0	2
TAP	18	48	3
TAP	18	96	4
HLD	18	144	5	144
TAP	19	0	2
TAP	19	48	3
TAP	19	96	4
HLD	19	144	5	144
TAP	20	0	2
TAP	20	48	3
TAP	20	96	4
HLD	20	144	5	144
TAP	21	0	5
TAP	21	48	4
TAP	21	96	3
HLD	21	144	2	144
TAP	22	0	2
TAP	22	48	3
TAP	22	96	4
HLD	22	144	5	144
TAP	22	288	4
TAP	23	0	2
TAP	23	48	3
TAP	23	96	4
HLD	23	144	5	144
TAP	23	288	4
TAP	24	0	2
TAP	24	48	3
TAP	24	96	4
HLD	24	144	5	144
TAP	24	288	4
TAP	25	0	5
TAP	25	48	4
TAP	25	96	3
STR	25	144	2
SI_	25	144	2	96	48	4
HLD	25	144	4	96
TAP	26	0	5
TAP	26	96	4
TAP	26	96	5
HLD	26	144	4	96
HLD	26	144	5	192
TAP	27	48	4
TAP	27	48	6
TAP	27	144	5
TAP	27	192	5
TAP	27	288	2
TAP	27	288	4
HLD	28	0	1	240
HLD	28	0	3	144
TAP	28	336	2
TAP	28	336	3
TAP	29	48	4
TAP	29	144	3
TAP	29	144	4
TAP	29	240	2
TAP	29	240	5
TAP	29	288	2
TAP	29	288	5
TAP	30	0	3
TAP	30	0	6
TAP	30	96	4
TAP	30	96	5
HLD	30	144	4	96
HLD	30	144	5	96
TAP	30	336	3
HLD	30	336	6	96
TAP	31	48	3
TAP	31	144	4
TAP	31	144	5
TAP	31	240	3
TAP	31	288	3
HLD	32	0	2	240
TAP	32	96	3
HLD	32	144	3	96
TAP	32	288	2
TAP	32	288	3
TAP	33	0	4
TAP	33	96	3
TAP	33	96	5
TAP	33	144	3
TAP	33	144	5
TAP	33	240	2
TAP	33	240	4
STR	33	288	2
SUL	33	288	2	96	192	4
TAP	33	288	4
TAP	34	0	3
STR	34	288	4
SUL	34	288	4	96	192	6
TAP	35	0	5
STR	35	288	6
SUL	35	288	6	96	192	0
TAP	36	0	7
TAP	36	288	0
TAP	36	288	6
HLD	37	0	1	96
HLD	37	0	5	96
HLD	37	144	2	96
HLD	37	144	4	96
STR	37	288	2
SUL	37	288	2	96	192	5
TAP	37	288	4
TAP	38	0	3
STR	38	288	5
SUR	38	288	5	96	192	2
TAP	39	0	4
STR	39	288	2
SXR	39	288	2	96	288	7
HLD	40	0	3	288
TAP	41	0	7
XTP	41	192	0
XTP	41	192	6
TAP	42	0	3
TAP	42	0	5
HLD	42	48	3	96
TAP	42	48	5
HLD	42	144	6	96
HLD	42	240	4	192
HLD	42	336	7	144
TAP	43	96	4
TAP	43	192	3
TAP	43	192	6
TAP	43	288	4
TAP	43	288	5
TAP	44	0	3
HLD	44	48	3	96
HLD	44	144	2	96
STR	44	240	1
SUR	44	240	1	96	192	6
TAP	45	192	7
TAP	45	288	1
TAP	45	288	7
TAP	46	0	2
TAP	46	0	6
TAP	46	48	2
HLD	46	48	6	192
HLD	46	144	4	96
TAP	46	336	3
TAP	46	336	5
HLD	47	48	2	192
TAP	47	48	4
HLD	47	144	3	96
TAP	47	288	2
TAP	47	288	3
TAP	48	0	4
TAP	48	0	6
TAP	48	48	4
HLD	48	48	6	96
HLD	48	144	5	96
HLD	48	240	4	96
TAP	48	336	3
HLD	49	48	2	192
HLD	49	144	4	96
STR	49	288	2
SI_	49	288	2	96	96	6
TAP	49	288	4
XTP	50	240	1
XTP	50	240	7
XST	50	288	1
SCR	50	288	1	96	96	4
XTP	50	288	7
STR	51	0	5
SCR	51	0	5	96	96	0
TAP	51	192	4
STR	51	288	0
SCL	51	288	0	96	96	5
STR	51	288	4
SCL	51	288	4	96	96	1
TAP	52	192	1
TAP	52	192	5
STR	52	288	2
SCL	52	288	2	96	96	7
TAP	52	288	4
STR	53	0	3
SCR	53	0	3	96	96	6
TAP	53	192	7
STR	53	288	6
SCL	53	288	6	96	96	3
STR	53	288	7
SCR	53	288	7	96	96	2
XTP	54	192	2
XTP	54	192	3
STR	54	288	0
SCL	54	288	0	96	96	5
STR	54	288	1
SUL	54	288	1	96	96	4
XTP	55	192	3
STR	55	288	1
SUL	55	288	1	96	96	4
STR	55	288	5
SCR	55	288	5	96	96	0
XTP	56	192	0
TAP	56	288	1
TAP	56	288	7
TAP	57	0	2
TAP	57	0	6
TAP	57	96	5
HLD	57	144	5	96
HLD	57	240	7	96
HLD	57	336	0	96
TAP	58	48	2
TAP	58	96	2
TAP	58	192	3
TAP	58	192	4
TAP	58	288	2
XST	58	288	5
SCR	58	288	5	96	96	0
STR	59	0	1
SCR	59	0	1	96	96	4
TAP	59	192	0
STR	59	288	0
SCL	59	288	0	96	96	5
STR	59	288	4
SCL	59	288	4	96	96	1
TAP	60	192	1
TAP	60	192	5
STR	60	288	4
SCR	60	288	4	96	96	7
STR	61	0	1
SCR	61	0	1	96	96	4
TAP	61	192	7
STR	61	288	4
SCL	61	288	4	96	96	1
STR	61	288	7
SCL	61	288	7	96	96	4
XTP	62	192	6
XTP	62	192	7
STR	62	288	0
SCR	62	288	0	96	96	3
STR	62	288	5
SCR	62	288	5	96	96	0
XTP	63	192	0
XTP	63	192	3
STR	63	288	2
SCL	63	288	2	96	96	7
STR	63	288	7
SCL	63	288	7	96	96	4
XTP	64	192	4
XTP	64	192	7
TAP	64	288	0
HLD	65	0	1	96
HLD	65	0	7	96
HLD	65	144	2	96
HLD	65	144	6	96
HLD	65	288	3	96
HLD	65	288	5	96
HLD	66	48	4	96
STR	66	192	4
SI_	66	192	4	96	48	6
TAP	67	0	2
TAP	67	48	3
TAP	67	96	4
HLD	67	144	5	96
TAP	67	240	4
TAP	67	288	4
TAP	68	0	2
TAP	68	48	3
TAP	68	96	4
HLD	68	144	5	96
TAP	68	240	4
TAP	68	288	4
TAP	69	0	2
TAP	69	48	3
TAP	69	96	4
HLD	69	144	5	96
TAP	69	240	4
TAP	69	288	4
TAP	70	0	5
TAP	70	48	4
TAP	70	96	3
HLD	70	144	2	96
TAP	70	240	4
TAP	70	288	4
TAP	70	336	4
HLD	71	0	1	384
TAP	71	96	2
TAP	71	192	0
TAP	71	288	2
HLD	72	0	6	384
TAP	72	96	7
TAP	72	192	5
TAP	72	288	7
HLD	73	0	0	480
TAP	73	96	1
TAP	73	192	7
TAP	73	288	2
TAP	74	0	6
STR	74	96	3
SI_	74	96	3	96	96	7
TAP	75	0	2
TAP	75	48	2
STR	75	96	2
SI_	75	96	2	96	96	0
TAP	75	192	4
TAP	75	240	4
STR	75	288	4
SI_	75	288	4	96	96	2
TAP	76	0	0
TAP	76	48	0
TAP	76	96	0
TAP	76	192	1
TAP	76	192	3
TAP	76	288	2
TAP	76	288	4
TAP	77	0	5
TAP	77	48	5
STR	77	96	5
SI_	77	96	5	96	96	7
TAP	77	192	3
TAP	77	240	3
STR	77	288	3
SI_	77	288	3	96	96	5
TAP	78	0	7
TAP	78	48	7
STR	78	96	7
SSR	78	96	7	96	144	3
TAP	79	0	1
TAP	79	48	1
STR	79	96	1
SI_	79	96	1	96	96	5
STR	79	192	6
SCR	79	192	6	96	96	1
TAP	80	0	3
TAP	80	48	3
STR	80	96	3
SI_	80	96	3	96	96	7
STR	80	192	6
SCL	80	192	6	96	96	3
TAP	81	0	2
STR	81	96	1
SCR	81	96	1	96	96	4
STR	81	96	3
SI_	81	96	3	96	96	7
TAP	82	0	4
TAP	82	0	7
TAP	82	96	6
HLD	82	192	3	96
STR	82	192	5
SI_	82	192	5	96	48	3
XTP	83	0	0
XTP	83	0	1
STR	83	96	2
SCL	83	96	2	96	96	7
STR	83	192	3
SCR	83	192	3	96	96	6
TAP	84	0	7
STR	84	96	6
SXR	84	96	6	96	192	3
TAP	84	192	7
STR	85	0	2
SXR	85	0	2	96	192	7
TAP	85	192	3
TAP	85	288	3
STR	86	0	3
SUR	86	0	3	96	96	7
STR	86	0	7
SUR	86	0	7	96	96	3
STR	86	288	1
SCR	86	288	1	96	96	4
STR	87	0	5
SCR	87	0	5	96	96	0
XHO	87	192	4	96
STR	87	288	0
SUL	87	288	0	96	96	4
STR	88	0	3
SCL	88	0	3	96	96	0
HLD	88	192	4	96
STR	88	288	7
SCR	88	288	7	96	96	2
STR	89	0	3
SCR	89	0	3	96	96	6
HLD	89	192	3	96
STR	89	288	0
SCL	89	288	0	96	96	5
STR	90	0	4
SCL	90	0	4	96	96	1
HLD	90	192	4	96
STR	90	288	1
SSR	90	288	1	96	384	5
TTP	91	0	0	C	1	M1
TTP	93	0	5	E	0	M1
TTP	93	96	6	B	0	M1
TTP	93	96	6	E	0	M1
TTP	93	288	4	E	0	M1
TTP	94	0	3	E	0	M1
TTP	94	96	1	B	0	M1
TTP	94	96	2	E	0	M1
TTP	94	288	4	E	0	M1
TAP	95	0	5
HLD	95	96	5	288
TTP	95	288	4	B	0	M1
TAP	96	0	3
HLD	96	96	2	288
TTP	96	288	3	B	0	M1
TAP	97	0	4
HLD	97	96	5	288
TTP	97	288	1	B	0	M1
HLD	98	0	0	288
THO	98	192	0	96	C	0	M1
TTP	98	192	1	B	0	M1

T_REC_TAP	191
T_REC_BRK	1
T_REC_XTP	17
T_REC_HLD	78
T_REC_XHO	1
T_REC_STR	70
T_REC_BST	0
T_REC_XST	2
T_REC_TTP	14
T_REC_THO	1
T_REC_SLD	72
T_REC_ALL	447
T_NUM_TAP	294
T_NUM_BRK	1
T_NUM_HLD	80
T_NUM_SLD	72
T_NUM_ALL	447
T_JUDGE_TAP	295
T_JUDGE_HLD	257
T_JUDGE_SLD	72
T_JUDGE_ALL	624
TTM_EACHPAIRS	76
TTM_SCR_TAP	147000
TTM_SCR_BRK	2600
TTM_SCR_HLD	80000
TTM_SCR_SLD	108000
TTM_SCR_ALL	337600
TTM_SCR_S	327400
TTM_SCR_SS	337500
TTM_RAT_ACV	10002

