VERSION	0.00.00	1.03.00
FES_MODE	0
BPM_DEF	160.000	160.000	160.000	160.000
MET_DEF	4	4
RESOLUTION	384
CLK_DEF	384
COMPATIBLE_CODE	MA2

BPM	0	0	160.000
MET	0	0	4	4

STR	2	0	0
SCR	2	0	0	96	384	5
STR	4	0	7
SCL	4	0	7	96	384	2
STR	6	0	1
SCR	6	0	1	96	144	4
STR	7	0	5
SCR	7	0	5	96	144	0
STR	8	0	1
SXR	8	0	1	96	480	4
HLD	10	0	5	384
HLD	11	0	4	384
HLD	12	0	3	384
TAP	13	0	2
HLD	14	0	1	384
HLD	15	0	0	384
HLD	16	0	7	384
TAP	17	0	6
TAP	17	192	0
TAP	17	192	7
TAP	18	0	6
TAP	18	96	6
TAP	18	192	6
TAP	18	192	7
TAP	19	0	1
TAP	19	96	1
TAP	19	192	0
TAP	19	192	1
TAP	20	0	6
TAP	20	96	6
TAP	20	192	6
TAP	20	192	7
TAP	21	0	0
TAP	21	96	0
TAP	21	192	1
TAP	21	192	7
TAP	22	0	2
TAP	22	96	2
TAP	22	192	2
TAP	22	192	3
TAP	23	0	5
TAP	23	96	5
TAP	23	192	4
TAP	23	192	5
TAP	24	0	2
TAP	24	96	2
TAP	24	192	2
TAP	24	192	3
TAP	25	0	4
TAP	25	96	3
TAP	25	192	2
TAP	25	192	5
HLD	26	0	6	192
TAP	26	192	7
HLD	27	0	1	192
TAP	27	192	0
HLD	28	0	6	192
TAP	28	192	7
HLD	29	0	0	96
HLD	29	0	1	96
TAP	29	192	0
TAP	29	192	1
HLD	30	0	2	192
TAP	30	192	3
HLD	31	0	5	192
TAP	31	192	4
HLD	32	0	2	192
TAP	32	192	3
HLD	33	0	3	96
HLD	33	0	4	96
TAP	33	192	3
TAP	33	192	4
TAP	34	0	2
TAP	34	96	2
TAP	34	192	3
TAP	35	0	5
TAP	35	96	5
TAP	35	192	4
TAP	36	0	2
TAP	36	96	2
TAP	36	192	3
TAP	37	0	4
TAP	37	96	4
TAP	37	192	3
TAP	37	192	5
TAP	38	0	6
TAP	38	96	6
TAP	38	192	7
TAP	39	0	1
TAP	39	96	1
TAP	39	192	0
STR	40	0	0
SCR	40	0	0	96	144	3
STR	40	0	7
SCL	40	0	7	96	144	4
TTP	41	0	0	C	0	L1
TTP	42	0	6	E	0	L1
TTP	42	96	5	B	0	L1
TTP	42	192	4	B	0	L1
TTP	43	0	2	E	0	L1
TTP	43	96	2	B	0	L1
TTP	43	192	3	B	0	L1
TTP	44	0	6	E	0	L1
TTP	44	96	5	B	0	L1
TTP	44	192	4	B	0	L1
TTP	45	0	1	B	0	L1
TTP	45	0	6	B	0	L1
TTP	46	0	3	B	0	L1
TTP	46	96	2	B	0	L1
TTP	46	192	1	B	0	L1
TTP	47	0	4	B	0	L1
TTP	47	96	5	B	0	L1
TTP	47	192	6	B	0	L1
TTP	48	0	3	E	0	L1
TTP	48	96	2	B	0	L1
TTP	48	192	1	B	0	L1
TTP	49	0	5	E	0	L1
TTP	49	96	5	B	0	L1
TTP	49	192	6	B	0	L1
TTP	49	288	7	B	0	L1
TTP	50	0	0	C	0	L1
BRK	51	0	6
TAP	51	96	6
TAP	51	192	6
TAP	51	192	7
TAP	51	288	6
TAP	51	288	7
TAP	52	0	1
TAP	52	96	1
TAP	52	192	0
TAP	52	192	1
TAP	52	288	0
TAP	52	288	1
TAP	53	0	2
TAP	53	96	2
TAP	53	192	3
TAP	53	288	3
TAP	54	0	4
TAP	54	96	4
TAP	54	192	3
TAP	54	192	5
HLD	55	0	6	96
TAP	55	96	7
TAP	55	192	6
TAP	55	192	7
HLD	56	0	1	96
TAP	56	96	0
TAP	56	192	0
TAP	56	192	1
TAP	57	0	2
TAP	57	96	2
TAP	57	192	3
TAP	57	288	3
TAP	58	0	4
TAP	58	96	4
TAP	58	192	3
TAP	58	192	5
TAP	59	0	2
TAP	59	96	2
TAP	59	192	2
TAP	59	192	3
TAP	59	288	2
TAP	59	288	3
TAP	60	0	5
TAP	60	96	5
TAP	60	192	4
TAP	60	192	5
TAP	60	288	4
TAP	60	288	5
TAP	61	0	6
TAP	61	96	6
TAP	61	192	7
TAP	61	288	7
TAP	62	0	0
TAP	62	96	0
TAP	62	192	1
TAP	62	192	7
HLD	63	0	2	96
TAP	63	96	3
TAP	63	192	2
TAP	63	192	3
HLD	64	0	5	96
TAP	64	96	4
TAP	64	192	4
TAP	64	192	5
TAP	65	0	6
TAP	65	96	7
TAP	65	192	0
TAP	65	288	1
TAP	66	0	2
TAP	66	96	3
TAP	66	192	4
TAP	66	288	5
BST	67	0	6
SCL	67	0	6	96	144	3
STR	68	0	2
SCL	68	0	2	96	144	7
STR	69	0	6
SUL	69	0	6	96	144	2
STR	70	0	1
SCR	70	0	1	96	144	4
STR	71	0	6
SUL	71	0	6	96	144	2
STR	72	0	1
SUR	72	0	1	96	144	5
STR	73	0	6
SCL	73	0	6	96	144	3
STR	74	0	2
SCL	74	0	2	96	144	7
TAP	75	0	6
TAP	75	96	6
TAP	75	192	6
TAP	75	192	7
TAP	76	0	1
TAP	76	96	1
TAP	76	192	0
TAP	76	192	1
TAP	77	0	6
TAP	77	96	6
TAP	77	192	7
TAP	77	288	7
TAP	78	0	0
TAP	78	96	0
TAP	78	192	1
TAP	78	192	7
TAP	79	0	2
TAP	79	96	2
TAP	79	192	2
TAP	79	192	3
TAP	80	0	5
TAP	80	96	5
TAP	80	192	4
TAP	80	192	5
TAP	81	0	2
TAP	81	96	2
TAP	81	192	3
TAP	81	288	3
TAP	82	0	4
TAP	82	96	4
TAP	82	192	3
TAP	82	192	5
STR	83	0	6
SI_	83	0	6	96	144	3
TAP	84	0	2
TAP	84	96	2
TAP	84	192	4
TAP	84	288	4
STR	85	0	3
SI_	85	0	3	96	144	7
TAP	86	0	6
TAP	86	96	6
TAP	86	192	0
TAP	86	288	0
STR	87	0	7
SI_	87	0	7	96	144	3
TAP	88	0	2
TAP	88	96	2
TAP	88	192	4
TAP	88	288	4
STR	89	0	3
SI_	89	0	3	96	144	0
TAP	90	0	7
TAP	90	96	7
BRK	90	192	0
BRK	90	192	7
HLD	91	0	1	384
HLD	92	0	0	384
HLD	93	0	7	384
TAP	94	0	6
TAP	94	192	6
TAP	94	192	7
HLD	95	0	5	384
HLD	96	0	4	384
HLD	97	0	3	384
STR	98	0	2
SI_	98	0	2	96	144	5

T_REC_TAP	181
T_REC_BRK	3
T_REC_XTP	0
T_REC_HLD	26
T_REC_XHO	0
T_REC_STR	19
T_REC_BST	1
T_REC_XST	0
T_REC_TTP	26
T_REC_THO	0
T_REC_SLD	20
T_REC_ALL	276
T_NUM_TAP	226
T_NUM_BRK	4
T_NUM_HLD	26
T_NUM_SLD	20
T_NUM_ALL	276
T_JUDGE_TAP	230
T_JUDGE_HLD	136
T_JUDGE_SLD	20
T_JUDGE_ALL	386
TTM_EACHPAIRS	38
TTM_SCR_TAP	113000
TTM_SCR_BRK	10400
TTM_SCR_HLD	26000
TTM_SCR_SLD	30000
TTM_SCR_ALL	179400
TTM_SCR_S	173650
TTM_SCR_SS	179000
TTM_RAT_ACV	10022

