VERSION	0.00.00	1.03.00
FES_MODE	0
BPM_DEF	160.000	160.000	160.000	160.000
MET_DEF	4	4
RESOLUTION	384
CLK_DEF	384
COMPATIBLE_CODE	MA2

BPM	0	0	160.000
MET	0	0	4	4

XTP	2	0	3
TAP	4	0	3
TAP	6	0	4
TAP	8	0	3
TAP	8	0	4
XTP	10	0	3
TAP	11	0	2
TAP	12	0	1
TAP	13	0	0
TAP	14	0	7
TAP	15	0	6
TAP	16	0	5
TAP	17	0	3
TAP	17	0	4
TAP	18	0	5
TAP	18	192	5
TAP	19	0	5
TAP	20	0	6
TAP	21	0	6
TAP	21	0	7
TAP	22	0	1
TAP	22	192	1
TAP	23	0	1
TAP	24	0	2
TAP	25	0	2
TAP	25	0	3
HLD	26	0	2	384
HLD	26	0	3	384
HLD	28	0	0	384
HLD	28	0	1	384
HLD	30	0	6	384
HLD	30	0	7	384
HLD	32	0	4	384
HLD	32	0	5	384
TAP	34	0	6
TAP	34	192	6
TAP	35	0	6
HLD	36	0	6	384
HLD	36	0	7	384
TAP	38	0	0
TAP	38	192	0
TAP	39	0	0
HLD	40	0	0	384
HLD	40	0	1	384
TAP	42	0	2
TAP	42	192	2
TAP	43	0	2
HLD	44	0	2	384
HLD	44	0	3	384
TAP	46	0	5
TAP	46	192	5
TAP	47	0	5
HLD	48	0	4	384
HLD	48	0	5	384
BRK	50	0	6
TAP	51	0	7
TAP	51	192	7
TAP	52	0	6
TAP	52	0	7
TAP	53	0	5
TAP	53	192	5
TAP	54	0	4
TAP	54	0	5
TAP	55	0	2
TAP	55	192	2
TAP	56	0	2
TAP	56	0	3
TAP	57	0	1
TAP	57	192	1
TAP	58	0	0
TAP	58	0	1
TAP	59	0	0
TAP	59	192	0
TAP	60	0	1
TAP	60	192	1
TAP	61	0	2
TAP	62	0	2
TAP	62	0	3
TAP	63	0	4
TAP	63	192	4
TAP	64	0	5
TAP	64	192	5
TAP	65	0	6
TAP	66	0	6
TAP	66	0	7
STR	67	0	7
SI_	67	0	7	96	288	4
STR	69	0	0
SI_	69	0	0	96	288	4
STR	71	0	6
SI_	71	0	6	96	288	3
STR	73	0	2
SI_	73	0	2	96	288	6
TAP	75	0	7
TAP	75	96	7
TAP	75	192	7
TAP	76	0	6
TAP	76	0	7
TAP	76	192	6
TAP	76	192	7
TAP	77	0	5
TAP	77	96	5
TAP	77	192	5
TAP	78	0	4
TAP	78	0	5
TAP	78	192	4
TAP	78	192	5
TAP	79	0	3
TAP	79	96	3
TAP	79	192	3
TAP	80	0	2
TAP	80	0	3
TAP	80	192	2
TAP	80	192	3
TAP	81	0	1
TAP	81	96	1
TAP	81	192	1
BRK	82	0	0
BRK	82	0	7
TAP	83	0	0
TAP	83	96	0
TAP	83	192	0
TAP	84	0	1
TAP	84	96	1
TAP	84	192	1
TAP	85	0	2
TAP	85	96	2
TAP	85	192	2
TAP	86	0	3
TAP	86	0	4
TAP	86	96	3
TAP	86	96	4
TAP	86	192	3
TAP	86	192	4
TAP	87	0	5
TAP	87	96	5
TAP	87	192	5
TAP	88	0	6
TAP	88	96	6
TAP	88	192	6
TAP	89	0	7
TAP	89	96	7
TAP	89	192	7
TAP	90	0	0
TAP	90	0	7
TAP	90	96	0
TAP	90	96	7
TAP	90	192	0
TAP	90	192	7
XHO	91	0	1	768
XHO	91	0	6	768
TTP	95	0	0	B	0	L1
TTP	95	0	7	B	0	L1
TTP	96	0	1	B	0	L1
TTP	96	0	6	B	0	L1
TTP	97	0	2	B	0	L1
TTP	97	0	5	B	0	L1
THO	98	0	0	288	C	0	L1

T_REC_TAP	120
T_REC_BRK	3
T_REC_XTP	2
T_REC_HLD	16
T_REC_XHO	2
T_REC_STR	4
T_REC_BST	0
T_REC_XST	0
T_REC_TTP	6
T_REC_THO	1
T_REC_SLD	4
T_REC_ALL	158
T_NUM_TAP	132
T_NUM_BRK	3
T_NUM_HLD	19
T_NUM_SLD	4
T_NUM_ALL	158
T_JUDGE_TAP	135
T_JUDGE_HLD	166
T_JUDGE_SLD	4
T_JUDGE_ALL	305
TTM_EACHPAIRS	32
TTM_SCR_TAP	66000
TTM_SCR_BRK	7800
TTM_SCR_HLD	19000
TTM_SCR_SLD	6000
TTM_SCR_ALL	98800
TTM_SCR_S	95550
TTM_SCR_SS	98500
TTM_RAT_ACV	10030

