VERSION	0.00.00	1.03.00
FES_MODE	0
BPM_DEF	184.000	184.000	184.000	184.000
MET_DEF	4	4
RESOLUTION	384
CLK_DEF	384
COMPATIBLE_CODE	MA2

BPM	0	0	184.000
MET	0	0	4	4

STR	1	0	0
SI_	1	0	0	96	1584	5
STR	1	0	1
SI_	1	0	1	96	1056	4
TAP	5	336	0
TAP	5	336	7
TAP	6	48	1
TAP	6	48	6
TAP	6	144	2
TAP	6	192	3
TAP	6	240	4
TAP	6	288	5
TTP	6	336	0	C	1	M1
TAP	6	336	6
TAP	7	192	0
TAP	7	192	7
TAP	7	240	0
STR	7	240	7
SCL	7	240	7	96	192	2
TTP	7	336	0	C	1	M1
TAP	8	192	0
STR	8	240	0
SCR	8	240	0	96	192	5
TTP	8	336	0	C	1	M1
TAP	9	192	7
STR	9	240	7
SCL	9	240	7	96	192	2
TTP	9	336	0	C	1	M1
TAP	10	192	0
TAP	10	240	0
TTP	10	336	0	C	1	M1
TTP	10	336	2	B	0	M1
BRK	10	336	7
BRK	11	144	0
TTP	11	144	0	C	1	M1
TTP	11	144	5	B	0	M1
TTP	11	336	0	C	1	M1
TTP	11	336	2	B	0	M1
BRK	11	336	7
BRK	12	144	0
TTP	12	144	0	C	1	M1
TTP	12	144	5	B	0	M1
TAP	12	288	0
TAP	12	288	7
TAP	12	336	0
TAP	12	336	7
TAP	13	48	4
BRK	13	48	6
TAP	13	96	4
TAP	13	96	6
BRK	13	192	1
TAP	13	192	3
TAP	13	240	1
TAP	13	240	3
TAP	13	336	4
BRK	13	336	6
TAP	14	0	4
TAP	14	0	6
TAP	14	96	1
TAP	14	96	5
TAP	14	192	3
TAP	14	216	4
TAP	14	240	3
TAP	14	264	4
TAP	14	288	2
TAP	14	312	5
TAP	14	336	2
TAP	14	360	5
STR	15	0	0
SI_	15	0	0	96	48	4
BRK	15	96	0
TAP	15	96	7
STR	15	192	2
SI_	15	192	2	96	48	5
TAP	15	192	6
TAP	15	288	0
STR	16	0	4
SI_	16	0	4	96	48	1
TAP	16	0	7
TAP	16	96	5
STR	16	192	2
SI_	16	192	2	96	48	5
TAP	16	192	6
TAP	16	288	0
STR	17	0	4
SI_	17	0	4	96	48	1
TAP	17	0	7
TAP	17	96	5
STR	17	192	2
SI_	17	192	2	96	48	5
TAP	17	192	6
TAP	17	288	0
TAP	18	0	3
TAP	18	0	7
TAP	18	48	3
TAP	18	48	7
TAP	18	96	2
TAP	18	96	6
STR	18	144	2
SI_	18	144	2	96	48	7
STR	18	144	6
SI_	18	144	6	96	48	3
TAP	19	0	0
STR	19	0	3
SI_	19	0	3	96	48	6
TAP	19	96	2
TAP	19	192	1
STR	19	192	5
SI_	19	192	5	96	48	2
TAP	19	288	7
TAP	20	0	0
STR	20	0	3
SI_	20	0	3	96	48	6
TAP	20	96	2
TAP	20	192	1
STR	20	192	5
SI_	20	192	5	96	48	2
TAP	20	288	7
TAP	21	0	0
STR	21	0	3
SI_	21	0	3	96	48	6
TAP	21	96	2
TAP	21	192	1
TAP	21	192	5
TAP	21	288	0
TAP	21	288	6
STR	21	336	0
SCR	21	336	0	96	48	3
STR	21	336	6
SCL	21	336	6	96	48	3
BRK	22	192	0
BRK	22	192	7
BRK	22	288	1
BRK	22	288	6
TAP	23	0	3
TAP	23	0	5
TAP	23	48	3
HLD	23	48	5	624
TAP	23	240	4
TAP	23	336	4
TAP	24	48	3
TAP	24	96	3
TTP	24	192	6	B	0	M1
TTP	24	192	6	E	0	M1
TTP	24	288	4	B	0	M1
TTP	24	288	5	E	0	M1
TAP	25	0	2
HLD	25	48	2	624
TAP	25	240	3
TAP	25	336	3
TAP	26	48	4
TAP	26	96	4
TTP	26	192	1	B	0	M1
TTP	26	192	2	E	0	M1
TTP	26	288	3	B	0	M1
TTP	26	288	3	E	0	M1
HLD	27	0	5	192
TAP	27	96	4
HLD	27	192	3	192
TAP	27	288	2
HLD	28	0	1	192
TAP	28	96	0
TAP	28	192	0
TAP	28	288	1
TAP	28	288	7
TAP	29	0	4
TAP	29	0	6
TAP	29	48	4
TAP	29	48	6
TAP	29	144	1
TAP	29	144	3
TAP	29	192	1
TAP	29	192	3
TAP	29	288	3
TAP	29	288	5
TAP	29	336	3
HLD	29	336	5	336
BRK	30	192	0
BRK	30	288	0
TAP	31	0	2
TAP	31	0	4
TAP	31	96	2
TAP	31	96	6
TAP	31	192	2
TAP	31	240	3
TAP	31	288	2
TAP	31	288	3
TAP	32	0	2
TTP	32	0	5	B	0	M1
TTP	32	0	5	E	0	M1
TAP	32	96	2
TTP	32	96	3	B	0	M1
TTP	32	96	4	E	0	M1
TAP	32	192	2
TAP	32	240	6
TAP	32	288	2
TAP	32	288	6
TAP	33	0	2
TTP	33	0	4	B	0	M1
TTP	33	0	4	E	0	M1
TAP	33	96	2
TTP	33	96	6	B	0	M1
TTP	33	96	6	E	0	M1
TAP	33	192	2
TAP	33	240	0
TAP	33	288	0
TAP	33	288	2
TAP	34	0	2
TTP	34	0	5	B	0	M1
TTP	34	0	5	E	0	M1
TAP	34	96	2
TTP	34	96	3	B	0	M1
TTP	34	96	4	E	0	M1
TAP	34	192	2
TAP	34	240	6
TAP	34	288	2
TAP	34	288	6
STR	35	0	4
SCR	35	0	4	96	72	6
TAP	35	96	3
STR	35	192	2
SXL	35	192	2	96	96	4
TAP	35	288	7
STR	36	0	0
SCL	36	0	0	96	96	5
TAP	36	96	3
TAP	36	192	2
TAP	36	288	1
TAP	36	288	5
TAP	37	0	0
TAP	37	0	6
TAP	37	96	2
TAP	37	144	2
TAP	37	192	4
STR	37	240	1
SUR	37	240	1	96	240	4
BRK	37	336	7
XTP	38	192	7
XTP	38	288	7
STR	39	0	2
SCL	39	0	2	96	480	5
TTP	39	192	0	C	0	M1
TTP	40	192	0	C	0	M1
STR	41	0	2
SCL	41	0	2	96	480	5
TTP	41	192	0	C	0	M1
TTP	42	192	0	C	0	M1
STR	43	0	2
SXL	43	0	2	96	384	3
SLL	43	0	2	96	384	3
XTP	44	192	2
XTP	44	192	4
TAP	45	0	3
STR	45	0	5
SI_	45	0	5	96	480	0
TAP	45	96	3
TAP	45	192	3
TAP	45	288	3
TAP	46	0	3
TAP	46	96	3
TAP	46	192	3
TAP	46	288	3
TAP	47	0	3
STR	47	0	7
SCL	47	0	7	96	480	4
TAP	47	96	3
TAP	47	192	2
TAP	47	288	2
TAP	48	0	1
TAP	48	96	1
TAP	48	192	0
STR	48	288	0
SI_	48	288	0	96	48	4
TAP	49	0	7
STR	49	96	6
SI_	49	96	6	96	48	3
TAP	49	192	0
STR	49	288	1
SI_	49	288	1	96	48	4
TAP	50	0	7
TAP	50	48	7
TAP	50	96	7
TAP	50	144	7
TAP	50	192	0
TAP	50	192	7
TAP	50	240	0
TAP	50	240	7
TAP	50	288	1
TAP	50	288	6
TTP	51	0	0	C	1	M1
TTP	51	0	0	E	0	M1
TTP	51	0	1	B	0	M1
TTP	51	0	3	B	0	M1
TTP	51	0	4	B	0	M1
TTP	51	0	6	B	0	M1
BRK	52	0	0
BRK	52	96	1
BRK	52	192	2
TAP	52	288	3
TAP	52	288	7
XST	53	0	0
SI_	53	0	0	96	48	5
STR	53	0	5
SI_	53	0	5	96	48	0
STR	53	96	0
SLL	53	96	0	96	96	2
STR	53	96	5
SLR	53	96	5	96	96	2
XST	53	336	1
SI_	53	336	1	96	48	5
STR	54	48	7
SCR	54	48	7	96	96	3
STR	54	144	3
SCR	54	144	3	96	96	7
TAP	54	240	7
STR	54	336	0
SI_	54	336	0	96	48	3
TAP	55	48	6
STR	55	96	5
SI_	55	96	5	96	48	0
TAP	55	144	4
TAP	55	192	3
STR	55	240	2
SUR	55	240	2	96	144	5
TTP	55	336	0	C	1	M1
HLD	56	144	7	96
TAP	56	240	2
TAP	56	288	1
TAP	56	288	6
TAP	56	336	0
TAP	56	336	5
STR	57	0	0
SI_	57	0	0	96	48	5
STR	57	0	5
SI_	57	0	5	96	48	0
STR	57	96	0
SLL	57	96	0	96	96	2
STR	57	96	5
SLR	57	96	5	96	96	2
XST	57	336	1
SI_	57	336	1	96	48	5
STR	58	48	7
SCR	58	48	7	96	96	3
STR	58	144	3
SCR	58	144	3	96	96	7
TAP	58	240	7
HLD	58	336	1	96
TTP	59	48	6	B	0	M1
TTP	59	48	7	E	0	M1
BRK	59	96	0
TTP	59	144	2	B	0	M1
TTP	59	144	2	E	0	M1
BRK	59	192	0
TTP	59	240	5	B	0	M1
TTP	59	240	5	E	0	M1
BRK	59	288	0
TTP	59	336	3	B	0	M1
TTP	59	336	4	E	0	M1
XTP	60	0	0
XTP	60	0	7
XTP	60	48	0
XST	60	48	7
SI_	60	48	7	96	48	2
SI_	60	48	7	96	48	4
BRK	60	240	1
BRK	60	240	5
STR	61	0	2
SI_	61	0	2	96	48	7
STR	61	0	7
SI_	61	0	7	96	48	2
STR	61	96	2
SLL	61	96	2	96	96	5
STR	61	96	7
SLR	61	96	7	96	96	5
XST	61	336	6
SI_	61	336	6	96	48	2
STR	62	48	0
SCL	62	48	0	96	96	4
STR	62	144	4
SCL	62	144	4	96	96	0
TAP	62	240	0
STR	62	336	7
SI_	62	336	7	96	48	4
TAP	63	48	1
STR	63	96	2
SI_	63	96	2	96	48	7
TAP	63	144	3
TAP	63	192	4
STR	63	240	5
SUL	63	240	5	96	144	2
TTP	63	336	0	C	1	M1
HLD	64	144	0	96
TAP	64	240	5
TAP	64	288	1
TAP	64	288	6
TAP	64	336	2
TAP	64	336	7
STR	65	0	2
SI_	65	0	2	96	48	7
STR	65	0	7
SI_	65	0	7	96	48	2
STR	65	96	2
SLL	65	96	2	96	96	5
STR	65	96	7
SLR	65	96	7	96	96	5
XST	65	336	6
SI_	65	336	6	96	48	3
TAP	66	48	7
XHO	66	144	1	96
TAP	66	240	7
TAP	66	288	2
TAP	66	288	6
TAP	67	0	4
TAP	67	0	5
TAP	67	48	3
TAP	67	48	6
TAP	67	144	2
TAP	67	144	3
TAP	67	192	1
TAP	67	192	4
TAP	67	288	4
TAP	67	288	6
TAP	67	336	3
TAP	67	336	7
TAP	68	48	1
TAP	68	48	3
TAP	68	96	0
TAP	68	96	4
TAP	68	192	0
TAP	68	192	7
TAP	68	240	1
TAP	68	240	6
STR	68	288	2
SXR	68	288	2	96	384	4
STR	68	288	5
SXL	68	288	5	96	384	3
BRK	69	0	2
BRK	69	0	5
HLD	70	192	0	48
HLD	70	192	1	48
HLD	70	264	2	48
HLD	70	264	7	48
TAP	70	336	3
TAP	70	336	6
BST	71	0	3
SXR	71	0	3	96	384	5
BST	71	0	6
SXL	71	0	6	96	384	4
HLD	72	192	6	48
HLD	72	192	7	48
HLD	72	264	0	48
HLD	72	264	5	48
TAP	72	336	1
TAP	72	336	4
BST	73	0	1
SXR	73	0	1	96	384	3
BST	73	0	4
SXL	73	0	4	96	384	2
HLD	74	192	0	48
HLD	74	192	7	48
HLD	74	264	1	48
HLD	74	264	6	48
TAP	74	336	2
TAP	74	336	5
BST	75	0	2
SXR	75	0	2	96	384	4
BST	75	0	5
SXL	75	0	5	96	384	3
TAP	76	192	0
TAP	76	288	7
TAP	77	0	4
TAP	77	0	6
TAP	77	96	3
TAP	77	96	4
HLD	77	192	1	48
HLD	77	192	3	48
HLD	77	264	1	48
HLD	77	264	3	48
TAP	77	336	2
TAP	77	336	4
TAP	78	0	2
TAP	78	0	4
TAP	78	96	3
TAP	78	96	5
HLD	78	192	4	48
HLD	78	192	6	48
HLD	78	264	4	48
HLD	78	264	6	48
TAP	78	336	3
TAP	78	336	5
TAP	79	0	3
TAP	79	0	5
TAP	79	96	2
TAP	79	96	4
HLD	79	192	1	48
HLD	79	192	3	48
HLD	79	264	1	48
HLD	79	264	3	48
TAP	79	336	2
TAP	79	336	4
TAP	80	0	2
TAP	80	0	4
TAP	80	96	3
TAP	80	96	4
TAP	80	192	0
TAP	80	192	7
TAP	80	288	1
TAP	80	288	6
TAP	81	0	3
XST	81	0	4
SI_	81	0	4	96	48	6
TAP	81	96	3
TAP	81	192	3
XST	81	192	6
SI_	81	192	6	96	48	4
TAP	81	288	3
XST	82	0	3
SI_	82	0	3	96	48	1
TAP	82	0	4
TAP	82	96	4
XST	82	192	1
SI_	82	192	1	96	48	3
TAP	82	192	4
TAP	82	288	4
TAP	83	0	3
XST	83	0	4
SI_	83	0	4	96	48	7
TAP	83	96	3
TAP	83	192	3
XST	83	192	7
SI_	83	192	7	96	48	4
TAP	83	288	3
XST	84	0	3
SI_	84	0	3	96	48	0
TAP	84	0	4
TAP	84	96	4
XST	84	192	0
SI_	84	192	0	96	48	3
TAP	84	192	4
TAP	84	288	4
STR	85	0	4
SCR	85	0	4	96	48	7
TAP	85	96	1
STR	85	192	3
SCL	85	192	3	96	48	0
TAP	85	288	6
STR	86	0	4
SCR	86	0	4	96	48	7
TAP	86	96	1
STR	86	192	3
SCL	86	192	3	96	48	0
TAP	86	288	6
STR	87	0	4
SI_	87	0	4	96	48	7
STR	87	96	3
SI_	87	96	3	96	48	0
STR	87	192	4
SI_	87	192	4	96	48	6
STR	87	288	3
SI_	87	288	3	96	48	1
STR	88	0	4
SI_	88	0	4	96	48	7
STR	88	96	3
SI_	88	96	3	96	48	0
HLD	88	192	4	96
XTP	88	288	0
TAP	89	0	1
TAP	89	0	6
TTP	89	96	0	C	1	M1
TTP	89	96	0	E	0	M1
TTP	89	96	1	B	0	M1
TTP	89	96	3	B	0	M1
TTP	89	96	4	B	0	M1
TTP	89	96	6	B	0	M1
XTP	92	192	0
XTP	92	192	7
XTP	92	288	0
XTP	92	288	7
HLD	93	0	4	96
HLD	93	96	5	96
HLD	93	192	6	96
HLD	93	288	7	96
HLD	94	0	0	96
TAP	94	96	1
TAP	94	192	0
STR	94	192	1
SI_	94	192	1	96	384	4
STR	94	288	0
SI_	94	288	0	96	288	5
TAP	94	288	1
TAP	96	0	1
TAP	96	0	6
TAP	96	48	1
TAP	96	48	6
TAP	96	144	3
STR	96	144	4
SI_	96	144	4	96	48	7
BRK	96	240	0
STR	97	0	0
SI_	97	0	0	96	48	4
STR	97	0	1
SI_	97	0	1	96	48	4
STR	97	96	0
SLR	97	96	0	96	96	6
STR	97	96	1
SI_	97	96	1	96	96	6
XST	97	336	5
SCL	97	336	5	96	48	2
STR	98	48	0
SI_	98	48	0	96	48	4
TAP	98	48	5
TAP	98	144	0
STR	98	144	7
SI_	98	144	7	96	48	3
TAP	98	240	1
TAP	98	240	7
STR	98	336	0
SI_	98	336	0	96	48	3
TAP	99	48	6
STR	99	96	5
SI_	99	96	5	96	48	0
TAP	99	144	4
TAP	99	192	3
STR	99	240	2
SCL	99	240	2	96	96	5
TAP	99	288	7
BRK	99	336	7
XST	100	144	4
SI_	100	144	4	96	48	7
STR	100	240	0
SCR	100	240	0	96	144	6
TTP	100	336	0	C	1	M1
XTP	101	48	7
XST	101	96	7
SI_	101	96	7	96	48	2
STR	101	192	0
SLL	101	192	0	96	96	4
STR	101	288	4
SLL	101	288	4	96	96	0
STR	102	0	0
SLL	102	0	0	96	96	4
STR	102	96	4
SLL	102	96	4	96	96	0
TAP	102	192	0
TAP	102	288	4
TAP	103	0	2
TAP	103	0	3
TAP	103	48	1
TAP	103	48	4
TAP	103	144	4
TAP	103	144	5
TAP	103	192	3
TAP	103	192	6
TAP	103	288	1
TAP	103	288	3
TAP	103	336	0
TAP	103	336	4
TAP	104	48	4
TAP	104	48	6
TAP	104	96	3
TAP	104	96	7
TAP	104	192	6
TAP	104	192	7
TAP	104	240	0
TAP	104	240	5
TAP	104	288	1
TAP	104	288	4
TAP	105	0	0
TAP	105	0	1
TTP	105	48	4	B	0	M1
TTP	105	48	4	E	0	M1
TTP	105	48	5	B	0	M1
TAP	105	144	6
TAP	105	144	7
TTP	105	192	2	B	0	M1
TTP	105	192	3	B	0	M1
TTP	105	192	4	E	0	M1
TAP	105	288	0
TAP	105	288	1
TTP	105	336	4	B	0	M1
TTP	105	336	4	E	0	M1
TTP	105	336	5	B	0	M1
TAP	106	48	0
TAP	106	48	7
STR	106	96	0
SCR	106	96	0	96	96	3
TAP	106	96	7
STR	106	192	3
SI_	106	192	3	96	96	7
STR	106	288	7
SCL	106	288	7	96	96	4
STR	107	0	4
SI_	107	0	4	96	288	0
XTP	108	0	7
BST	108	96	1
SI_	108	96	1	96	48	6
BRK	108	96	4
STR	108	192	5
SI_	108	192	5	96	48	2
STR	108	288	0
SI_	108	288	0	96	48	3
STR	109	0	4
SI_	109	0	4	96	48	7
STR	109	96	2
SI_	109	96	2	96	48	5
STR	109	192	6
SI_	109	192	6	96	48	1
STR	109	288	3
SI_	109	288	3	96	48	0
STR	110	0	7
SI_	110	0	7	96	48	4
STR	110	96	1
SI_	110	96	1	96	48	6
STR	110	192	5
SI_	110	192	5	96	48	2
HLD	110	288	0	96
TAP	111	0	7
TAP	111	48	0
TAP	111	48	6
TAP	111	96	1
TAP	111	96	5
TAP	111	144	2
STR	111	144	4
SI_	111	144	4	96	48	0
BRK	111	240	0
TAP	111	336	2
TAP	111	336	7
TAP	112	0	2
STR	112	0	7
SI_	112	0	7	96	48	2
STR	112	96	3
SI_	112	96	3	96	48	6
STR	112	192	0
SI_	112	192	0	96	48	5
STR	112	288	4
SI_	112	288	4	96	48	1
STR	113	0	6
SI_	113	0	6	96	48	3
STR	113	96	2
SI_	113	96	2	96	48	7
STR	113	192	5
SI_	113	192	5	96	48	0
STR	113	288	1
SI_	113	288	1	96	48	4
STR	114	0	7
SI_	114	0	7	96	48	2
STR	114	96	3
SI_	114	96	3	96	48	6
STR	114	192	7
SI_	114	192	7	96	48	2
SI_	114	192	7	96	48	4
TAP	115	0	1
TAP	115	0	5
TAP	115	48	2
TAP	115	96	3
TAP	115	96	7
TAP	115	144	6
TAP	115	192	0
TAP	115	192	5
TAP	115	240	1
TAP	115	240	6
STR	115	288	2
SI_	115	288	2	96	48	7
STR	115	288	7
SI_	115	288	7	96	48	2
BST	116	0	2
SLL	116	0	2	96	1296	5
BST	116	0	7
SLR	116	0	7	96	1296	5
STR	119	288	6
SI_	119	288	6	96	48	2

T_REC_TAP	332
T_REC_BRK	29
T_REC_XTP	14
T_REC_HLD	40
T_REC_XHO	1
T_REC_STR	116
T_REC_BST	9
T_REC_XST	17
T_REC_TTP	68
T_REC_THO	0
T_REC_SLD	145
T_REC_ALL	771
T_NUM_TAP	547
T_NUM_BRK	38
T_NUM_HLD	41
T_NUM_SLD	145
T_NUM_ALL	771
T_JUDGE_TAP	585
T_JUDGE_HLD	91
T_JUDGE_SLD	145
T_JUDGE_ALL	821
TTM_EACHPAIRS	166
TTM_SCR_TAP	273500
TTM_SCR_BRK	98800
TTM_SCR_HLD	41000
TTM_SCR_SLD	217500
TTM_SCR_ALL	630800
TTM_SCR_S	608200
TTM_SCR_SS	627000
TTM_RAT_ACV	10060

