VERSION	0.00.00	1.03.00
FES_MODE	0
BPM_DEF	184.000	184.000	184.000	184.000
MET_DEF	4	4
RESOLUTION	384
CLK_DEF	384
COMPATIBLE_CODE	MA2

BPM	0	0	184.000
MET	0	0	4	4

STR	1	0	0
SI_	1	0	0	96	480	5
STR	1	0	1
SI_	1	0	1	96	480	4
STR	3	0	6
SI_	3	0	6	96	480	3
STR	3	0	7
SI_	3	0	7	96	480	2
HLD	5	0	3	528
HLD	5	0	4	528
TAP	6	240	2
TAP	6	240	5
TTP	6	336	0	C	1	M1
XTP	7	192	0
XTP	7	240	0
XHO	7	336	1	144
XHO	7	336	7	144
TAP	8	192	2
TAP	8	240	2
XHO	8	336	1	144
XHO	8	336	3	144
TAP	9	192	5
TAP	9	240	5
XHO	9	336	4	144
XHO	9	336	6	144
TAP	10	192	3
TAP	10	192	5
TAP	10	240	3
TAP	10	240	5
XHO	10	336	2	96
TAP	11	48	3
XHO	11	144	6	96
TAP	11	240	4
XHO	11	336	1	96
TAP	12	48	0
XTP	12	144	6
TAP	12	240	6
TAP	12	240	7
TAP	12	336	4
TAP	12	336	5
XTP	13	48	3
TAP	13	96	3
XTP	13	192	2
XTP	13	192	4
TAP	13	288	4
XTP	13	336	4
TAP	14	48	3
TAP	14	48	5
TAP	14	144	2
TAP	14	144	4
TAP	14	240	1
TAP	14	240	5
TAP	14	288	1
TAP	14	288	5
XTP	15	0	0
BRK	15	96	1
BRK	15	96	7
XTP	15	240	3
XTP	15	288	3
XTP	15	288	4
TAP	16	0	5
TAP	16	96	0
TAP	16	96	6
TAP	16	192	1
TAP	16	240	1
TAP	16	288	0
TAP	17	0	2
TAP	17	96	1
TAP	17	96	7
TAP	17	192	6
TAP	17	240	6
TAP	17	288	7
XHO	18	0	5	96
XTP	18	96	4
XTP	18	144	4
XTP	18	240	3
XTP	18	240	6
TAP	19	0	2
TAP	19	96	1
TAP	19	96	7
TAP	19	192	6
TAP	19	240	6
TAP	19	288	7
TAP	20	0	5
TAP	20	96	0
TAP	20	96	6
TAP	20	192	1
TAP	20	240	1
TAP	20	288	0
TAP	21	0	7
TAP	21	96	7
TAP	21	192	0
TAP	21	192	6
XTP	21	288	1
XTP	21	288	5
XTP	21	336	1
XHO	21	336	5	240
BRK	22	192	4
BRK	22	288	3
BRK	22	288	4
XTP	23	0	2
XHO	23	0	5	576
TAP	23	192	4
TAP	23	288	4
TAP	24	0	3
TAP	24	96	3
TAP	24	192	4
TAP	24	288	3
TAP	24	288	4
HLD	25	0	2	480
TAP	25	0	5
TAP	25	96	5
TAP	25	192	3
TAP	25	288	3
TAP	26	0	4
TAP	26	96	3
TAP	26	192	1
TAP	26	192	4
TAP	26	288	1
TAP	26	288	4
HLD	27	0	5	192
TAP	27	96	4
TAP	27	192	4
TAP	27	288	3
TAP	28	0	2
TAP	28	0	3
TAP	28	96	2
TAP	28	96	3
TAP	28	192	1
TAP	28	192	4
TAP	29	0	2
TAP	29	48	2
TAP	29	144	4
TAP	29	192	4
TAP	29	288	3
TAP	29	288	5
HLD	29	336	3	144
HLD	29	336	5	144
BRK	30	192	2
BRK	30	192	6
BRK	30	288	2
BRK	30	288	6
TAP	31	0	7
TAP	31	96	6
TAP	31	192	5
TAP	31	240	5
TAP	31	336	3
TAP	31	336	4
TAP	32	48	2
TAP	32	48	3
TAP	32	144	0
TAP	32	192	0
TAP	32	288	1
TAP	32	288	7
TAP	33	0	0
TAP	33	96	1
TAP	33	192	2
TAP	33	240	2
TAP	33	336	3
TAP	33	336	4
TAP	34	48	4
TAP	34	48	5
TAP	34	144	7
TAP	34	192	7
TAP	34	288	0
TAP	34	288	6
TAP	35	0	1
STR	35	0	5
SCL	35	0	5	96	96	2
TAP	35	192	0
TAP	35	288	0
STR	36	0	1
SCR	36	0	1	96	96	4
TAP	36	0	5
TAP	36	192	6
TAP	36	288	6
XTP	37	0	4
XTP	37	0	5
XTP	37	96	3
XTP	37	144	3
STR	37	240	2
SUL	37	240	2	96	240	5
TAP	37	240	4
XTP	38	192	7
HLD	39	0	6	192
HLD	39	192	4	192
TTP	40	0	5	E	0	M1
TTP	40	96	6	E	0	M1
TTP	40	192	0	C	0	M1
TTP	40	192	7	E	0	M1
HLD	41	0	1	192
HLD	41	192	3	192
TTP	42	0	3	E	0	M1
TTP	42	96	2	E	0	M1
TTP	42	192	0	C	0	M1
TTP	42	192	1	E	0	M1
HLD	43	0	6	192
HLD	43	192	4	192
HLD	44	0	3	192
HLD	44	192	2	192
XTP	45	0	3
TAP	45	96	2
TAP	45	96	3
TAP	45	192	3
TAP	45	192	4
TAP	45	288	3
TAP	45	288	4
TAP	46	0	4
TAP	46	0	5
TAP	46	96	4
TAP	46	96	5
HLD	46	192	3	96
HLD	46	192	6	96
TAP	47	0	2
TAP	47	0	5
TAP	47	96	2
TAP	47	96	5
TAP	47	192	1
TAP	47	192	4
TAP	47	288	1
TAP	47	288	4
TAP	48	0	0
TAP	48	0	5
TAP	48	96	0
TAP	48	96	5
HLD	48	192	6	96
HLD	48	192	7	96
TAP	49	0	5
TAP	49	96	4
TAP	49	96	5
TAP	49	192	2
TAP	49	288	2
TAP	49	288	3
TAP	50	0	1
TAP	50	0	4
TAP	50	96	1
TAP	50	96	4
TAP	50	192	3
TAP	50	192	6
TAP	50	288	3
TAP	50	288	6
TTP	51	0	0	C	1	M1
TTP	51	0	2	B	0	M1
TTP	51	0	2	E	0	M1
TTP	51	0	5	B	0	M1
TTP	51	0	6	E	0	M1
BRK	52	0	0
BRK	52	96	1
BRK	52	192	2
BRK	52	288	2
BRK	52	288	3
XTP	53	0	1
XTP	53	0	4
BRK	53	96	4
BRK	53	96	5
BRK	53	192	1
BRK	53	192	7
XTP	53	336	2
XTP	54	0	2
XTP	54	48	3
TAP	54	144	4
TAP	54	144	5
TAP	54	240	3
TAP	54	240	6
TAP	54	336	0
TAP	54	336	1
TAP	55	48	2
TAP	55	96	2
TAP	55	96	3
TAP	55	192	4
TAP	55	192	5
XTP	55	288	6
XTP	55	336	6
XTP	55	336	7
XTP	56	48	0
XTP	56	48	1
TAP	56	144	2
TAP	56	144	3
TAP	56	240	4
TAP	56	288	4
TAP	57	0	4
TAP	57	0	5
BRK	57	96	2
BRK	57	96	3
BRK	57	192	0
BRK	57	192	6
HLD	57	336	1	96
HLD	58	48	3	96
HLD	58	144	4	96
TAP	58	240	6
BRK	58	336	6
BRK	58	336	7
BRK	59	48	0
BRK	59	48	5
BRK	59	96	0
BRK	59	96	5
TAP	59	192	1
TAP	59	192	6
TAP	59	288	2
TAP	59	288	7
XTP	60	0	3
XTP	60	0	6
XTP	60	48	3
XTP	60	48	6
STR	60	144	5
SCL	60	144	5	96	96	2
XTP	61	0	1
BRK	61	96	2
BRK	61	96	3
BRK	61	192	0
BRK	61	192	6
XTP	61	336	5
XTP	62	0	5
XTP	62	48	4
TAP	62	144	2
TAP	62	144	3
TAP	62	240	1
TAP	62	240	4
TAP	62	336	6
TAP	62	336	7
TAP	63	48	5
TAP	63	96	4
TAP	63	96	5
TAP	63	192	2
TAP	63	192	3
XTP	63	288	1
XTP	63	336	0
XTP	63	336	1
XTP	64	48	6
XTP	64	48	7
TAP	64	144	4
TAP	64	144	5
TAP	64	240	3
TAP	64	240	6
TAP	64	288	3
STR	64	288	6
SI_	64	288	6	96	96	3
STR	65	96	2
SI_	65	96	2	96	96	7
STR	65	288	5
SI_	65	288	5	96	96	0
TAP	66	96	2
TAP	66	192	1
TAP	66	192	7
TAP	66	288	0
TAP	66	288	6
TAP	67	0	5
TAP	67	48	4
TAP	67	48	5
TAP	67	144	2
TAP	67	192	2
TAP	67	192	3
TAP	67	288	6
TAP	67	336	4
TAP	67	336	6
TAP	68	48	1
TAP	68	96	1
TAP	68	96	3
TAP	68	192	0
TAP	68	192	7
BST	68	288	2
SXR	68	288	2	96	384	4
BST	68	288	5
SXL	68	288	5	96	384	3
XTP	70	288	2
XTP	70	288	6
BST	71	0	3
SXR	71	0	3	96	384	4
BST	71	0	5
SXL	71	0	5	96	384	4
XTP	72	256	3
XTP	72	320	3
BST	73	0	2
SXR	73	0	2	96	384	3
BST	73	0	4
SXL	73	0	4	96	384	3
XTP	74	192	4
XTP	74	256	4
XTP	74	320	3
BST	75	0	2
SXR	75	0	2	96	384	4
BST	75	0	5
SXL	75	0	5	96	384	3
XTP	76	192	2
XTP	76	192	5
TAP	77	0	3
TAP	77	0	4
TAP	77	96	2
TAP	77	96	3
HLD	77	192	1	72
HLD	77	264	3	72
TAP	77	336	2
TAP	78	0	2
TAP	78	96	3
TAP	78	96	5
HLD	78	192	6	72
HLD	78	264	4	72
TAP	78	336	5
TAP	79	0	5
TAP	79	96	2
TAP	79	96	4
HLD	79	192	1	72
HLD	79	264	3	72
TAP	79	336	2
TAP	80	0	2
TAP	80	96	2
TAP	80	96	3
TAP	80	192	1
TAP	80	192	4
HLD	81	0	2	96
TAP	81	0	4
TAP	81	96	3
TAP	81	192	3
HLD	81	192	5	96
TAP	81	288	4
HLD	82	0	1	96
TAP	82	0	4
TAP	82	96	3
TAP	82	192	3
HLD	82	192	6	96
TAP	82	288	4
HLD	83	0	3	96
TAP	83	0	4
TAP	83	96	2
TAP	83	192	3
HLD	83	192	4	96
TAP	83	288	5
HLD	84	0	2	96
TAP	84	0	3
TAP	84	96	1
TAP	84	192	4
HLD	84	192	5	96
TAP	84	288	6
STR	85	0	0
SI_	85	0	0	96	96	4
STR	85	192	7
SI_	85	192	7	96	96	3
STR	86	0	0
SI_	86	0	0	96	96	4
STR	86	192	7
SI_	86	192	7	96	96	3
TAP	87	0	1
TAP	87	48	1
TAP	87	96	1
TAP	87	144	1
TAP	87	192	6
TAP	87	240	6
TAP	87	288	6
TAP	87	336	6
TAP	88	0	0
TAP	88	24	7
TAP	88	48	0
TAP	88	72	7
TAP	88	96	0
TAP	88	120	7
TAP	88	144	0
TAP	88	168	7
TAP	88	192	0
TAP	88	216	7
TAP	88	240	0
TAP	88	264	7
XTP	88	288	0
TAP	89	0	1
TAP	89	0	6
TTP	89	96	0	C	1	M1
TTP	89	96	2	B	0	M1
TTP	89	96	3	B	0	M1
TTP	89	96	4	B	0	M1
TTP	89	96	5	B	0	M1
XTP	92	192	3
XTP	92	192	4
XTP	92	288	3
XTP	92	288	4
HLD	93	0	5	96
TAP	93	96	4
TAP	93	192	3
TAP	93	192	6
TAP	93	288	3
TAP	93	288	6
HLD	94	0	2	96
TAP	94	96	3
TAP	94	192	1
TAP	94	192	4
STR	94	288	0
SF_	94	288	0	96	192	4
TAP	96	0	2
TAP	96	0	5
TAP	96	48	2
TAP	96	48	5
TAP	96	144	3
TAP	96	144	4
XTP	96	240	1
XTP	96	240	6
XTP	96	288	1
XTP	96	288	6
XTP	97	0	4
XTP	97	0	5
BRK	97	96	2
BRK	97	96	3
BRK	97	192	0
BRK	97	192	6
HLD	97	336	5	96
HLD	98	48	7	96
HLD	98	144	0	96
TAP	98	240	2
TAP	98	336	2
TAP	98	336	3
TAP	99	48	0
TAP	99	48	5
TAP	99	96	0
TAP	99	96	5
TAP	99	192	4
TAP	99	192	5
TAP	99	288	2
TAP	99	288	7
BRK	99	336	2
BRK	99	336	7
TAP	100	48	0
TAP	100	48	1
XTP	100	144	2
XTP	100	144	3
XTP	100	240	4
XTP	100	240	5
BRK	100	336	2
BRK	100	336	7
XTP	101	48	0
XTP	101	48	1
XST	101	96	0
SI_	101	96	0	96	48	4
XST	101	96	1
SI_	101	96	1	96	48	3
XTP	101	288	0
XTP	101	288	7
TAP	102	0	6
TAP	102	0	7
STR	102	48	6
SI_	102	48	6	96	48	3
STR	102	48	7
SI_	102	48	7	96	48	2
XTP	102	240	1
XTP	102	240	4
XTP	102	288	1
XTP	102	288	4
TAP	103	0	5
TAP	103	48	4
TAP	103	48	6
TAP	103	144	2
TAP	103	192	1
TAP	103	192	3
TAP	103	288	5
TAP	103	336	4
TAP	103	336	6
TAP	104	48	2
TAP	104	96	1
TAP	104	96	3
TAP	104	192	0
TAP	104	192	7
TAP	104	288	1
TAP	104	288	6
TAP	105	0	2
TAP	105	48	1
TAP	105	48	3
TAP	105	144	5
TAP	105	192	4
TAP	105	192	6
TAP	105	288	2
TAP	105	336	1
TAP	105	336	3
TAP	106	48	0
TAP	106	48	7
TAP	106	96	0
TAP	106	96	7
TAP	106	192	1
TAP	106	192	6
TAP	106	288	3
STR	106	288	4
SI_	106	288	4	96	288	0
XTP	108	0	1
XTP	108	0	7
BRK	108	96	2
BRK	108	96	6
TAP	108	288	3
TAP	109	0	2
TAP	109	0	4
TAP	109	96	0
TAP	109	192	3
TAP	109	192	5
TAP	109	288	7
TAP	110	0	2
HLD	110	0	6	96
TAP	110	96	4
HLD	110	192	1	96
TAP	110	192	5
TAP	110	288	3
TAP	111	0	0
TAP	111	0	7
TAP	111	96	4
TAP	111	96	5
STR	111	144	4
SI_	111	144	4	96	48	0
STR	111	144	5
SI_	111	144	5	96	48	0
TAP	112	0	1
TAP	112	0	7
TAP	112	96	2
TAP	112	96	6
TAP	112	192	5
TAP	112	240	5
TAP	112	288	4
TAP	113	0	0
TAP	113	0	6
TAP	113	96	1
TAP	113	96	5
TAP	113	192	2
TAP	113	240	2
TAP	113	288	3
STR	114	0	1
SI_	114	0	1	96	48	5
HLD	114	0	4	96
HLD	114	192	3	96
STR	114	192	6
SI_	114	192	6	96	48	2
TAP	115	0	1
TAP	115	0	3
TAP	115	96	0
TAP	115	96	7
TAP	115	192	4
TAP	115	192	6
TAP	115	288	3
STR	115	288	4
SCR	115	288	4	96	1632	3
TTP	116	0	0	C	1	M1

T_REC_TAP	364
T_REC_BRK	42
T_REC_XTP	82
T_REC_HLD	44
T_REC_XHO	12
T_REC_STR	24
T_REC_BST	8
T_REC_XST	2
T_REC_TTP	20
T_REC_THO	0
T_REC_SLD	34
T_REC_ALL	632
T_NUM_TAP	492
T_NUM_BRK	50
T_NUM_HLD	56
T_NUM_SLD	34
T_NUM_ALL	632
T_JUDGE_TAP	542
T_JUDGE_HLD	177
T_JUDGE_SLD	34
T_JUDGE_ALL	753
TTM_EACHPAIRS	192
TTM_SCR_TAP	246000
TTM_SCR_BRK	130000
TTM_SCR_HLD	56000
TTM_SCR_SLD	51000
TTM_SCR_ALL	483000
TTM_SCR_S	463700
TTM_SCR_SS	478000
TTM_RAT_ACV	10104

