VERSION	0.00.00	1.03.00
FES_MODE	0
BPM_DEF	184.000	184.000	184.000	184.000
MET_DEF	4	4
RESOLUTION	384
CLK_DEF	384
COMPATIBLE_CODE	MA2

BPM	0	0	184.000
MET	0	0	4	4

STR	1	0	2
SXR	1	0	2	96	480	4
STR	3	0	5
SXR	3	0	5	96	480	7
STR	5	0	0
SXL	5	0	0	96	480	4
XST	6	336	5
SI_	6	336	5	96	144	0
XST	7	336	1
SI_	7	336	1	96	144	4
XST	8	336	5
SI_	8	336	5	96	144	0
XST	9	336	1
SI_	9	336	1	96	144	4
XTP	10	336	5
XTP	11	144	2
XTP	11	144	3
XTP	11	336	0
XTP	11	336	1
XTP	12	144	6
XTP	12	144	7
XTP	13	48	0
XTP	13	48	7
XTP	13	192	0
XTP	13	192	7
XST	13	336	0
SI_	13	336	0	96	144	3
XST	13	336	7
SI_	13	336	7	96	144	4
XTP	15	96	4
XTP	15	96	5
TAP	15	192	4
TAP	15	192	5
TAP	16	0	2
TAP	16	96	2
TAP	16	192	2
TAP	16	192	3
TAP	17	0	5
TAP	17	96	5
TAP	17	192	4
TAP	17	288	4
TAP	18	0	3
TAP	18	96	3
TAP	18	192	2
TAP	18	192	4
TAP	19	0	1
TAP	19	96	1
TAP	19	192	0
TAP	19	192	1
TAP	20	0	6
TAP	20	96	6
TAP	20	192	6
TAP	20	192	7
TAP	21	0	1
TAP	21	96	1
TAP	21	192	0
TAP	21	288	0
XHO	22	0	0	96
XHO	22	0	7	96
BRK	22	192	1
BRK	22	192	6
HLD	23	0	5	192
TAP	23	192	4
HLD	24	0	2	192
TAP	24	192	3
HLD	25	0	5	192
TAP	25	192	4
HLD	26	0	2	96
HLD	26	0	3	96
TAP	26	192	2
TAP	26	192	3
STR	27	0	1
SCR	27	0	1	96	144	4
STR	28	0	5
SCR	28	0	5	96	144	0
XTP	29	0	0
XTP	29	0	1
XTP	29	192	6
XTP	29	192	7
XTP	30	0	0
XTP	30	96	0
XTP	30	192	1
XTP	30	192	7
TAP	31	0	6
TAP	31	96	6
TAP	31	192	7
TAP	32	0	1
TAP	32	96	1
TAP	32	192	0
TAP	33	0	6
TAP	33	96	6
TAP	33	192	7
TAP	34	0	1
TAP	34	96	1
TAP	34	192	0
TAP	34	192	6
STR	35	0	7
SCL	35	0	7	96	144	4
STR	36	0	3
SCL	36	0	3	96	144	0
XTP	37	0	6
XTP	37	0	7
XTP	37	192	0
XTP	37	192	1
TAP	38	0	0
TAP	38	0	7
TAP	38	96	0
TAP	38	96	7
TAP	38	192	1
TAP	38	192	6
HLD	39	0	5	384
HLD	40	0	4	384
HLD	41	0	3	384
TAP	42	0	2
HLD	43	0	0	192
HLD	43	0	1	192
HLD	44	0	6	192
HLD	44	0	7	192
TTP	45	0	6	E	0	L1
TTP	45	96	5	B	0	L1
TTP	45	192	4	B	0	L1
TTP	46	0	2	E	0	L1
TTP	46	96	2	B	0	L1
TTP	46	192	3	B	0	L1
TTP	47	0	6	B	0	L1
TTP	47	96	5	B	0	L1
TTP	47	192	5	E	0	L1
TTP	48	0	1	B	0	L1
TTP	48	96	2	B	0	L1
TTP	48	192	3	E	0	L1
TTP	49	0	6	B	0	L1
TTP	49	96	5	B	0	L1
TTP	49	192	4	B	0	L1
TTP	49	288	3	B	0	L1
TTP	50	0	2	B	0	L1
TTP	50	96	1	B	0	L1
TTP	50	192	0	B	0	L1
TTP	50	288	7	B	0	L1
TTP	51	0	0	C	1	L1
XTP	52	0	0
XTP	52	96	1
XTP	52	192	2
TAP	52	288	3
TAP	53	0	3
TAP	53	0	4
BRK	53	96	2
BRK	53	96	5
TAP	53	192	2
TAP	53	192	5
TAP	54	0	2
TAP	54	0	3
TAP	54	96	2
TAP	54	96	3
TAP	54	192	1
TAP	54	192	4
TAP	55	0	1
TAP	55	96	1
TAP	55	192	0
TAP	55	288	0
TAP	56	0	7
TAP	56	96	7
TAP	56	192	0
TAP	56	192	6
TAP	57	0	0
TAP	57	0	1
TAP	57	96	0
TAP	57	96	1
TAP	57	192	2
TAP	57	192	7
TAP	58	0	6
TAP	58	0	7
TAP	58	96	6
TAP	58	96	7
TAP	58	192	0
TAP	58	192	5
TAP	59	0	5
TAP	59	96	5
TAP	59	192	4
TAP	59	288	4
XTP	60	0	3
XTP	60	96	3
XTP	60	192	2
XTP	60	192	4
TAP	61	0	2
TAP	61	0	3
BRK	61	96	1
BRK	61	96	4
TAP	61	192	1
TAP	61	192	4
TAP	62	0	4
TAP	62	0	5
TAP	62	96	4
TAP	62	96	5
TAP	62	192	3
TAP	62	192	6
TAP	63	0	6
TAP	63	96	6
TAP	63	192	7
TAP	63	288	7
TAP	64	0	0
TAP	64	96	0
TAP	64	192	1
TAP	64	192	7
TAP	65	0	6
TAP	65	0	7
TAP	65	96	6
TAP	65	96	7
TAP	65	192	0
TAP	65	192	5
TAP	66	0	1
TAP	66	96	1
TAP	66	192	0
TAP	66	192	7
XHO	67	0	6	144
XHO	67	144	7	144
XHO	67	288	0	144
XTP	68	48	1
TAP	68	192	0
TAP	68	192	7
STR	68	288	0
SXL	68	288	0	96	480	3
STR	68	288	7
SXR	68	288	7	96	480	4
STR	71	0	5
SXL	71	0	5	96	480	0
STR	73	0	1
SXL	73	0	1	96	480	4
STR	75	0	5
SXL	75	0	5	96	480	2
TTP	77	0	2	E	0	L1
TTP	77	192	3	E	0	L1
TTP	78	0	4	E	0	L1
TTP	78	192	5	E	0	L1
TTP	79	0	6	E	0	L1
TTP	79	192	7	E	0	L1
TTP	80	0	0	E	0	L1
TTP	80	192	1	E	0	L1
XST	81	0	2
SI_	81	0	2	96	144	7
TAP	82	0	6
TAP	82	96	6
TAP	82	192	6
TAP	82	192	7
STR	83	0	5
SI_	83	0	5	96	144	0
TAP	84	0	1
TAP	84	96	1
TAP	84	192	0
TAP	84	192	1
TAP	85	0	2
TAP	85	96	3
TAP	85	192	4
TAP	85	288	5
TAP	86	0	6
TAP	86	96	7
TAP	86	192	0
TAP	86	288	1
TAP	87	0	2
TAP	87	48	2
TAP	87	96	2
TAP	87	192	3
TAP	87	240	3
TAP	87	288	3
TAP	88	0	4
TAP	88	48	4
TAP	88	96	4
TAP	88	192	5
TAP	88	240	5
TAP	88	288	5
XTP	89	0	3
XTP	89	0	4
BRK	89	96	2
BRK	89	96	5
TAP	90	0	4
TAP	90	0	5
TAP	91	0	2
TAP	91	0	3
TAP	91	192	3
TAP	91	192	4
TAP	92	0	2
TAP	92	0	5
TAP	92	192	1
TAP	92	192	6
TAP	93	0	6
TAP	93	96	6
TAP	93	192	7
TAP	94	0	1
TAP	94	96	1
TAP	94	192	0
TAP	95	0	6
TAP	95	0	7
TAP	95	192	0
TAP	95	192	1
XST	96	0	0
SI_	96	0	0	96	144	3
XST	96	0	7
SI_	96	0	7	96	144	4
TAP	97	0	5
BRK	97	96	4
BRK	97	96	5
TAP	97	192	5
TAP	97	288	4
TAP	97	288	5
TAP	98	0	2
TAP	98	96	2
TAP	98	96	3
TAP	98	192	2
TAP	98	288	2
TAP	98	288	3
TAP	99	0	1
TAP	99	96	1
TAP	99	192	0
TAP	99	288	0
TAP	100	0	7
TAP	100	96	7
TAP	100	192	0
TAP	100	192	6
TAP	101	0	1
TAP	101	96	0
TAP	101	96	1
TAP	101	192	1
TAP	101	288	0
TAP	101	288	1
TAP	102	0	6
TAP	102	96	6
TAP	102	96	7
TAP	102	192	6
TAP	102	192	7
HLD	103	0	5	144
HLD	103	144	4	144
HLD	103	288	3	144
TAP	104	48	2
TAP	104	192	2
TAP	104	192	3
TAP	104	288	2
TAP	104	288	3
HLD	105	0	1	144
HLD	105	144	0	144
HLD	105	288	7	144
TAP	106	48	6
TAP	106	192	0
TAP	106	192	7
STR	106	288	0
SCR	106	288	0	96	144	3
STR	106	288	7
SCL	106	288	7	96	144	4
XTP	108	96	4
XTP	108	96	5
TAP	108	192	4
TAP	108	192	5
TAP	109	0	2
TAP	109	96	2
TAP	109	192	2
TAP	109	192	3
TAP	110	0	5
TAP	110	96	5
TAP	110	192	4
TAP	110	288	4
TAP	111	0	3
TAP	111	96	3
TAP	111	192	2
TAP	111	192	4
TAP	112	0	1
TAP	112	96	1
TAP	112	192	0
TAP	112	192	1
TAP	113	0	6
TAP	113	96	6
TAP	113	192	6
TAP	113	192	7
TAP	114	0	1
TAP	114	96	1
TAP	114	192	0
TAP	114	288	0
TAP	115	0	0
TAP	115	0	7
TAP	115	96	0
TAP	115	96	7
TAP	115	192	1
TAP	115	192	6
THO	116	0	0	1536	C	0	L1

T_REC_TAP	233
T_REC_BRK	10
T_REC_XTP	37
T_REC_HLD	18
T_REC_XHO	5
T_REC_STR	15
T_REC_BST	0
T_REC_XST	9
T_REC_TTP	29
T_REC_THO	1
T_REC_SLD	24
T_REC_ALL	381
T_NUM_TAP	323
T_NUM_BRK	10
T_NUM_HLD	24
T_NUM_SLD	24
T_NUM_ALL	381
T_JUDGE_TAP	333
T_JUDGE_HLD	119
T_JUDGE_SLD	24
T_JUDGE_ALL	476
TTM_EACHPAIRS	88
TTM_SCR_TAP	161500
TTM_SCR_BRK	26000
TTM_SCR_HLD	24000
TTM_SCR_SLD	36000
TTM_SCR_ALL	247500
TTM_SCR_S	239150
TTM_SCR_SS	246500
TTM_RAT_ACV	10040

