VERSION	0.00.00	1.03.00
FES_MODE	0
BPM_DEF	184.000	184.000	184.000	184.000
MET_DEF	4	4
RESOLUTION	384
CLK_DEF	384
COMPATIBLE_CODE	MA2

BPM	0	0	184.000
MET	0	0	4	4

XTP	6	336	0
XTP	7	336	0
XTP	8	336	7
XTP	9	336	7
XHO	10	336	0	384
XHO	10	336	7	384
XHO	12	336	0	384
XHO	12	336	7	384
TAP	15	0	0
TAP	16	0	0
TAP	17	0	1
TAP	18	0	1
TAP	19	0	2
TAP	20	0	2
HLD	21	0	3	336
HLD	21	0	4	336
TAP	23	0	4
TAP	24	0	4
TAP	25	0	5
TAP	26	0	5
TAP	27	0	6
TAP	28	0	6
HLD	29	0	0	336
HLD	29	0	7	336
XTP	31	0	7
TAP	32	0	6
TAP	33	0	5
TAP	34	0	3
TAP	34	0	4
TAP	35	0	3
TAP	36	0	2
XHO	37	0	0	336
XHO	37	0	1	336
TTP	39	0	0	B	0	L1
TTP	40	0	7	B	0	L1
TTP	41	0	1	B	0	L1
TTP	42	0	6	B	0	L1
TTP	43	0	2	B	0	L1
TTP	44	0	5	B	0	L1
TTP	45	0	3	B	0	L1
TTP	46	0	4	B	0	L1
TTP	47	0	2	B	0	L1
TTP	47	0	3	B	0	L1
TTP	48	0	0	B	0	L1
TTP	48	0	1	B	0	L1
TTP	49	0	6	B	0	L1
TTP	49	0	7	B	0	L1
TTP	50	0	4	B	0	L1
TTP	50	0	5	B	0	L1
TTP	51	0	0	C	1	L1
XTP	52	0	0
XTP	52	0	7
TAP	53	0	0
TAP	53	192	0
TAP	54	0	0
TAP	55	0	1
TAP	55	192	1
TAP	56	0	1
TAP	57	0	2
TAP	57	192	2
TAP	58	0	2
TAP	59	0	3
TAP	59	192	3
TAP	60	0	3
TAP	60	0	4
TAP	61	0	4
TAP	61	192	4
TAP	62	0	4
TAP	62	192	4
TAP	63	0	5
TAP	63	192	5
TAP	64	0	4
TAP	64	0	5
TAP	65	0	6
TAP	65	192	6
TAP	66	0	6
TAP	66	192	6
HLD	67	0	0	288
HLD	67	0	7	288
STR	69	0	7
SI_	69	0	7	96	288	4
STR	71	0	3
SI_	71	0	3	96	288	0
STR	73	0	7
SI_	73	0	7	96	288	3
STR	75	0	2
SI_	75	0	2	96	288	7
HLD	77	0	6	384
HLD	79	0	7	384
HLD	81	0	0	384
HLD	83	0	1	384
TTP	85	0	0	B	0	L1
TTP	85	0	7	B	0	L1
TTP	86	0	1	B	0	L1
TTP	86	0	6	B	0	L1
TTP	87	0	2	B	0	L1
TTP	87	0	5	B	0	L1
THO	88	0	0	480	C	0	L1
TAP	93	0	0
TAP	93	192	0
TAP	94	0	7
TAP	94	192	7
HLD	95	0	0	336
HLD	95	0	7	336
TAP	97	0	0
TAP	97	192	0
TAP	98	0	1
TAP	98	96	1
TAP	98	192	1
TAP	99	0	2
TAP	99	192	2
TAP	100	0	3
TAP	100	96	3
TAP	100	192	3
TAP	100	192	4
TAP	101	0	4
TAP	101	192	4
TAP	102	0	5
TAP	102	96	5
TAP	102	192	5
HLD	103	0	6	288
HLD	103	0	7	288
HLD	105	0	0	288
HLD	105	0	1	288
BRK	107	0	0
BRK	107	0	7
HLD	108	0	7	192
TAP	109	0	7
TAP	109	192	6
HLD	110	0	5	192
TAP	111	0	5
TAP	111	192	4
HLD	112	0	3	192
TAP	113	0	3
TAP	113	192	2
HLD	114	0	1	192
TAP	115	0	1
TAP	115	192	0
TAP	115	192	7
STR	116	0	0
SI_	116	0	0	96	288	3
STR	116	0	7
SI_	116	0	7	96	288	4
THO	118	0	0	768	C	0	L1

T_REC_TAP	72
T_REC_BRK	2
T_REC_XTP	7
T_REC_HLD	20
T_REC_XHO	6
T_REC_STR	6
T_REC_BST	0
T_REC_XST	0
T_REC_TTP	23
T_REC_THO	2
T_REC_SLD	6
T_REC_ALL	144
T_NUM_TAP	108
T_NUM_BRK	2
T_NUM_HLD	28
T_NUM_SLD	6
T_NUM_ALL	144
T_JUDGE_TAP	110
T_JUDGE_HLD	198
T_JUDGE_SLD	6
T_JUDGE_ALL	314
TTM_EACHPAIRS	17
TTM_SCR_TAP	54000
TTM_SCR_BRK	5200
TTM_SCR_HLD	28000
TTM_SCR_SLD	9000
TTM_SCR_ALL	96200
TTM_SCR_S	93150
TTM_SCR_SS	96000
TTM_RAT_ACV	10020

