VERSION	0.00.00	1.03.00
FES_MODE	0
BPM_DEF	190.000	190.000	190.000	190.000
MET_DEF	4	4
RESOLUTION	384
CLK_DEF	384
COMPATIBLE_CODE	MA2

BPM	0	0	190.000
MET	0	0	4	4

BRK	1	0	0
BRK	1	0	7
XTP	1	8	1
XTP	1	8	6
XHO	1	16	2	752
XTP	1	16	5
XTP	1	24	4
XST	1	32	3
SCR	1	32	3	96	1024	1
TAP	4	0	2
TAP	4	192	2
XST	5	0	2
SLR	5	0	2	96	480	7
XST	5	0	6
SLR	5	0	6	96	480	3
HLD	7	0	3	576
HLD	7	0	7	384
TTP	8	192	0	E	0	M1
TTP	8	204	1	E	0	M1
TTP	8	216	2	E	0	M1
TTP	8	228	3	E	0	M1
TTP	8	240	4	E	0	M1
TTP	8	252	5	E	0	M1
TTP	8	264	6	E	0	M1
TTP	8	276	7	E	0	M1
XTP	8	288	7
XTP	8	300	0
XTP	8	312	1
XTP	8	324	2
XTP	8	336	3
XTP	8	348	4
XTP	8	360	5
XTP	8	372	6
XST	9	0	7
SF_	9	0	7	96	288	3
TAP	10	288	2
TAP	10	288	4
TAP	10	336	2
TAP	10	336	4
XST	11	0	2
SLL	11	0	2	96	384	4
XST	11	0	4
SLR	11	0	4	96	384	2
TAP	12	288	3
TAP	12	288	4
TAP	13	0	2
TAP	13	0	3
TAP	13	96	2
TAP	13	96	3
TAP	13	192	3
TAP	13	192	4
TAP	13	288	3
TAP	13	288	4
TAP	14	0	4
TAP	14	0	5
TAP	14	96	4
TAP	14	96	5
TAP	14	192	3
TAP	14	192	4
TAP	14	288	3
HLD	14	288	4	96
TAP	15	0	3
TAP	15	48	2
TAP	15	96	1
TAP	15	96	4
TAP	15	144	5
TAP	15	192	2
TAP	15	192	6
TAP	15	240	1
TAP	15	288	0
TAP	15	288	5
TAP	15	336	0
TAP	15	336	5
TAP	16	0	6
TAP	16	24	7
TAP	16	48	6
TAP	16	72	7
TAP	16	96	5
TAP	16	120	0
TAP	16	144	5
TAP	16	168	0
TAP	16	192	7
TAP	16	216	2
TAP	16	240	7
TAP	16	264	2
TAP	16	288	0
TAP	16	312	1
TAP	16	336	0
TAP	17	0	2
TAP	17	0	3
BST	17	96	1
SI_	17	96	1	96	48	5
BRK	17	96	5
TAP	17	192	1
TAP	17	192	3
STR	17	240	4
SCR	17	240	4	96	48	7
STR	17	336	1
SCR	17	336	1	96	48	4
TAP	17	336	4
TAP	18	48	1
STR	18	48	6
SI_	18	48	6	96	48	2
TAP	18	144	6
TAP	18	144	7
STR	18	192	0
SF_	18	192	0	96	48	4
TAP	18	288	0
STR	19	0	2
SV_	19	0	2	96	48	7
STR	19	0	6
SI_	19	0	6	96	48	3
TAP	19	96	2
TAP	19	96	6
TAP	19	192	0
TAP	19	192	4
TAP	19	216	1
TAP	19	216	5
TAP	19	240	2
STR	19	240	6
SI_	19	240	6	96	48	3
STR	19	336	1
SI_	19	336	1	96	48	6
TAP	19	336	6
TAP	20	48	1
STR	20	48	5
SI_	20	48	5	96	48	1
TAP	20	144	4
TAP	20	144	5
STR	20	192	3
SI_	20	192	3	96	48	7
TAP	20	288	3
TAP	20	288	5
BRK	21	0	0
BRK	21	0	6
BRK	21	48	0
BRK	21	48	6
BRK	21	96	1
BRK	21	96	5
BRK	21	144	1
BRK	21	144	5
TAP	21	192	2
TAP	21	216	3
STR	21	240	1
SCL	21	240	1	96	48	6
TAP	21	336	1
STR	21	336	5
SCL	21	336	5	96	48	2
TAP	22	48	1
TAP	22	48	5
TAP	22	144	0
TAP	22	144	5
TAP	22	192	6
TAP	22	216	7
TAP	22	240	6
TAP	22	288	0
TAP	22	288	5
TAP	22	336	0
TAP	22	336	5
STR	23	0	1
SI_	23	0	1	96	48	4
STR	23	0	4
SI_	23	0	4	96	48	0
TAP	23	96	1
TAP	23	96	4
TAP	23	192	3
TAP	23	192	7
TAP	23	216	2
TAP	23	216	6
STR	23	240	1
SI_	23	240	1	96	48	5
STR	23	240	5
SI_	23	240	5	96	48	0
TAP	23	336	1
TAP	23	336	5
TAP	24	48	3
TAP	24	48	7
TAP	24	144	0
TAP	24	144	4
STR	24	192	2
SV_	24	192	2	96	48	7
STR	24	192	6
SI_	24	192	6	96	48	3
TAP	24	288	2
TAP	24	288	6
BRK	25	0	1
TAP	25	24	0
TAP	25	48	1
TAP	25	72	0
HLD	25	96	2	48
BRK	25	144	6
TAP	25	168	7
TAP	25	192	6
TAP	25	216	7
HLD	25	240	5	48
BRK	25	288	1
TAP	25	312	3
TAP	25	336	1
TAP	25	360	3
TAP	26	0	0
TAP	26	24	7
TAP	26	48	0
TAP	26	72	7
TAP	26	96	4
TAP	26	120	6
TAP	26	144	4
TAP	26	168	6
TAP	26	192	1
TAP	26	216	3
TAP	26	240	2
TAP	26	264	4
TAP	26	288	1
TAP	26	336	0
TAP	26	336	5
BRK	27	0	6
TAP	27	24	7
TAP	27	48	6
TAP	27	72	7
HLD	27	96	5	48
BRK	27	144	1
TAP	27	168	0
TAP	27	192	1
TAP	27	216	0
HLD	27	240	2	48
BRK	27	288	6
TAP	27	312	4
TAP	27	336	6
TAP	27	360	4
TAP	28	0	5
TAP	28	24	3
TAP	28	48	4
TAP	28	72	2
TAP	28	96	3
TAP	28	120	1
TAP	28	144	7
TAP	28	168	0
TAP	28	192	7
TAP	28	240	5
TAP	28	264	4
TAP	28	288	6
TAP	28	336	3
TAP	28	336	7
BRK	29	0	2
TAP	29	24	3
TAP	29	48	1
TAP	29	72	4
HLD	29	96	0	48
BRK	29	144	5
TAP	29	168	4
TAP	29	192	6
TAP	29	216	3
HLD	29	240	7	48
BRK	29	288	1
TAP	29	312	0
TAP	29	336	1
TAP	29	360	0
TAP	30	0	4
TAP	30	24	5
TAP	30	48	4
TAP	30	72	5
TAP	30	96	7
TAP	30	120	6
TAP	30	144	7
TAP	30	168	6
TAP	30	192	2
TAP	30	216	3
TAP	30	240	2
TAP	30	264	3
TAP	30	288	1
TAP	30	312	0
TAP	30	336	1
TAP	30	360	0
BRK	31	0	2
TAP	31	24	3
TAP	31	48	1
TAP	31	72	4
HLD	31	96	0	48
BRK	31	144	5
TAP	31	168	4
TAP	31	192	6
TAP	31	216	3
HLD	31	240	7	48
BRK	31	288	0
TAP	31	312	7
TAP	31	336	0
TAP	31	360	7
TAP	32	0	3
TAP	32	24	4
TAP	32	48	3
TAP	32	72	4
TAP	32	96	1
TAP	32	120	6
TAP	32	144	1
TAP	32	168	6
TAP	32	192	2
TAP	32	216	2
TAP	32	240	3
TAP	32	264	3
TAP	32	288	4
TAP	32	312	4
TAP	32	336	5
TAP	32	360	5
TTP	33	0	0	C	1	M1
TAP	33	96	7
TAP	33	192	7
TAP	33	288	7
TAP	33	352	0
TAP	34	0	6
TAP	34	96	6
TAP	34	192	6
TAP	34	288	6
TAP	34	352	0
TAP	35	0	5
TAP	35	96	5
TAP	35	192	5
TAP	35	288	5
TAP	35	352	0
HLD	36	0	4	192
TAP	36	96	1
TAP	36	192	2
TAP	36	288	3
TAP	36	288	4
TAP	37	0	2
TAP	37	32	3
TAP	37	64	2
TAP	37	96	4
TAP	37	128	4
TAP	37	160	1
TAP	37	192	5
TAP	37	224	4
TAP	37	256	5
TAP	37	288	3
TAP	37	320	3
TAP	37	352	6
TAP	38	0	1
TAP	38	32	0
TAP	38	64	1
TAP	38	96	7
TAP	38	128	7
TAP	38	160	2
TAP	38	192	6
TAP	38	224	7
TAP	38	256	6
TAP	38	288	0
TAP	38	320	0
TAP	38	352	5
TAP	39	0	1
TAP	39	32	1
TAP	39	64	3
TAP	39	96	2
TAP	39	128	2
TAP	39	160	4
TAP	39	192	3
TAP	39	224	3
TAP	39	256	5
TAP	39	288	4
TAP	39	320	4
TAP	39	352	6
THO	40	0	0	192	C	0	M1
STR	40	192	7
SI_	40	192	7	96	48	3
BRK	40	288	0
BRK	40	288	7
TAP	41	0	2
TAP	41	0	4
TAP	41	48	2
TAP	41	48	4
TAP	41	96	1
TAP	41	120	3
TAP	41	144	2
STR	41	192	0
SCL	41	192	0	96	48	5
TAP	41	192	1
TAP	41	240	7
TAP	41	288	3
TAP	41	336	2
TAP	42	0	1
TAP	42	0	4
TAP	42	48	2
TAP	42	72	3
TAP	42	96	2
TAP	42	144	3
TAP	42	144	4
TAP	42	192	4
TAP	42	192	5
TAP	42	240	6
TAP	42	264	7
STR	42	288	5
SI_	42	288	5	96	48	0
STR	42	336	3
SI_	42	336	3	96	48	7
STR	43	0	5
SI_	43	0	5	96	48	3
TAP	43	48	3
TAP	43	96	5
STR	43	144	0
SI_	43	144	0	96	48	5
STR	43	192	1
SI_	43	192	1	96	48	4
TAP	43	240	0
TAP	43	288	1
STR	43	336	6
SI_	43	336	6	96	48	3
STR	44	0	0
SI_	44	0	0	96	48	4
STR	44	48	6
SI_	44	48	6	96	48	0
TAP	44	96	0
TAP	44	144	6
STR	44	192	1
SF_	44	192	1	96	48	5
TAP	45	0	3
TAP	45	0	7
TAP	45	48	3
TAP	45	48	7
TAP	45	96	6
TAP	45	120	4
TAP	45	144	5
TAP	45	192	6
STR	45	192	7
SCR	45	192	7	96	48	2
TAP	45	240	0
TAP	45	288	5
TAP	45	336	6
TAP	46	0	3
TAP	46	0	7
TAP	46	48	6
TAP	46	72	4
TAP	46	96	5
TAP	46	144	3
TAP	46	144	4
TAP	46	192	2
TAP	46	192	3
TAP	46	240	1
TAP	46	264	0
TAP	46	288	2
TAP	46	312	7
TAP	46	336	3
TAP	46	360	6
HLD	47	0	4	96
TAP	47	96	6
TAP	47	120	3
TAP	47	144	6
TAP	47	168	3
TAP	47	192	5
TAP	47	216	2
TAP	47	240	4
TAP	47	264	1
TAP	47	312	6
TAP	47	336	7
TAP	48	0	5
TAP	48	24	5
TAP	48	72	1
TAP	48	96	3
TAP	48	120	2
TAP	48	144	6
TAP	48	168	4
TAP	48	192	5
TAP	48	216	2
TAP	48	240	3
TAP	48	264	1
TAP	48	288	5
TAP	48	312	4
TAP	48	336	6
TAP	49	0	0
TAP	49	0	7
TAP	49	48	0
TAP	49	48	7
TAP	49	96	1
TAP	49	120	0
TAP	49	144	2
TAP	49	192	1
STR	49	192	3
SCR	49	192	3	96	48	6
TAP	49	240	4
TAP	49	288	0
TAP	49	336	1
TAP	50	0	2
TAP	50	0	7
TAP	50	48	1
TAP	50	72	0
TAP	50	96	2
TAP	50	144	3
TAP	50	144	4
TAP	50	192	4
TAP	50	192	5
TAP	50	240	6
TAP	50	264	7
TAP	50	288	5
TAP	50	336	0
TAP	50	336	4
TAP	51	0	1
TAP	51	0	3
TAP	51	48	1
TAP	51	48	3
TAP	51	96	2
TAP	51	96	4
TAP	51	144	2
TAP	51	144	4
TAP	51	192	1
TAP	51	192	7
TAP	51	240	3
TAP	51	240	5
TAP	51	288	0
TAP	51	288	6
TAP	51	336	2
TAP	51	336	4
TAP	52	0	3
TAP	52	0	7
TAP	52	48	1
TAP	52	48	4
TAP	52	96	3
TAP	52	96	6
TAP	52	144	0
TAP	52	144	5
STR	52	192	2
SI_	52	192	2	96	48	7
STR	52	192	6
SI_	52	192	6	96	48	3
TAP	53	0	0
TAP	53	0	4
TAP	53	48	0
TAP	53	48	4
TAP	53	96	6
TAP	53	120	7
TAP	53	144	5
STR	53	192	4
SCL	53	192	4	96	48	1
TAP	53	192	6
TAP	53	240	3
TAP	53	288	7
TAP	53	336	6
TAP	54	0	5
TAP	54	24	0
TAP	54	48	5
TAP	54	72	0
TAP	54	96	5
TAP	54	144	1
TAP	54	144	4
TAP	54	192	2
TAP	54	192	3
TAP	54	240	1
TAP	54	264	0
TAP	54	288	2
TAP	54	336	3
TAP	54	336	7
TAP	55	0	4
TAP	55	0	6
TAP	55	48	3
TAP	55	48	5
HLD	55	96	2	48
TAP	55	144	7
HLD	55	168	1	48
TAP	55	216	6
HLD	55	240	0	48
TAP	55	288	5
HLD	55	312	7	48
TAP	55	360	4
HLD	56	0	0	48
TAP	56	48	3
HLD	56	72	1	48
TAP	56	120	3
TAP	56	144	2
TTP	56	192	1	E	0	M1
TTP	56	216	5	E	0	M1
TTP	56	240	3	E	0	M1
TTP	56	264	7	E	0	M1
TTP	56	288	2	B	0	M1
TTP	56	288	2	E	0	M1
TTP	56	312	6	B	0	M1
TTP	56	312	6	E	0	M1
TTP	56	336	0	B	0	M1
TTP	56	336	0	E	0	M1
TTP	56	360	4	B	0	M1
TTP	56	360	4	E	0	M1
TTP	57	0	0	C	1	M1
HLD	59	0	2	288
HLD	59	0	5	288
TAP	59	336	3
HLD	60	0	3	288
HLD	60	0	5	288
TAP	60	336	4
TAP	61	0	4
STR	61	0	5
SUL	61	0	5	96	288	4
TAP	61	168	3
TAP	61	192	3
STR	62	0	2
SUR	62	0	2	96	288	3
TAP	62	168	4
TAP	62	192	4
HLD	63	0	5	144
TAP	63	144	3
TAP	63	168	4
HLD	63	192	2	144
TAP	63	336	4
TAP	63	360	3
HLD	64	0	5	168
TAP	64	168	3
TAP	64	192	3
TAP	64	288	2
TAP	64	288	4
TAP	65	0	5
TAP	65	48	4
TAP	65	96	3
TAP	65	144	2
TAP	65	192	4
TAP	65	240	5
TAP	65	288	2
TAP	65	336	3
TAP	66	0	5
TAP	66	48	4
TAP	66	96	3
TAP	66	144	2
HLD	66	192	5	96
TAP	66	240	2
TAP	66	288	3
TAP	66	336	4
HLD	67	0	2	144
TAP	67	48	5
TAP	67	96	4
TAP	67	144	3
HLD	67	192	2	144
TAP	67	240	3
TAP	67	288	4
TAP	67	336	5
TAP	68	0	2
TAP	68	48	3
TAP	68	96	4
TAP	68	144	5
TTP	68	192	0	C	0	M1
HLD	68	192	6	1344
HLD	69	0	1	768
TAP	72	0	0
TAP	72	12	1
TAP	72	24	2
TAP	72	36	3
TAP	72	48	4
TAP	72	60	5
TAP	72	72	6
TAP	72	84	7
TAP	72	96	0
TAP	72	108	1
TAP	72	120	2
TAP	72	132	3
TAP	72	144	4
TAP	72	156	5
TAP	72	168	6
TAP	72	180	7
TAP	72	192	0
TAP	72	204	1
TAP	72	216	2
TAP	72	228	3
TAP	72	240	4
TAP	72	252	5
TAP	72	264	6
TAP	72	276	7
BRK	72	288	0
XTP	72	288	4
BRK	73	0	3
BRK	73	0	6
STR	73	96	2
SI_	73	96	2	96	48	6
TAP	73	120	3
TAP	73	144	1
TAP	73	168	4
TAP	73	192	2
TAP	73	240	5
TAP	73	264	5
TAP	73	288	7
TAP	73	336	0
TAP	73	336	6
TAP	74	0	1
TAP	74	24	3
TAP	74	48	2
TAP	74	72	6
STR	74	96	4
SI_	74	96	4	96	48	0
TAP	74	120	5
TAP	74	144	3
TAP	74	168	6
TAP	74	192	4
TAP	74	240	7
TAP	74	264	7
TAP	74	288	1
TAP	74	336	2
TAP	74	336	6
TAP	75	0	5
TAP	75	24	4
TAP	75	48	6
TAP	75	72	1
STR	75	96	3
SI_	75	96	3	96	48	7
TAP	75	120	2
TAP	75	144	4
TAP	75	168	1
TAP	75	192	3
TAP	75	240	0
TAP	75	264	0
TAP	75	288	6
TAP	75	336	1
TAP	75	336	5
TAP	76	0	4
TAP	76	24	3
TAP	76	48	4
TAP	76	96	1
TAP	76	120	3
TAP	76	168	6
TAP	76	192	4
TAP	76	240	0
TAP	76	240	7
TAP	76	264	0
TAP	76	264	7
TAP	76	312	1
TAP	76	312	6
TAP	76	336	1
TAP	76	336	6
BRK	77	0	3
BRK	77	0	5
BRK	77	48	2
BRK	77	48	4
BRK	77	96	3
BRK	77	96	6
BRK	77	144	1
BRK	77	144	4
TAP	77	192	5
TAP	77	216	4
TAP	77	240	6
TAP	77	264	3
TAP	77	288	7
TAP	77	336	2
TAP	77	336	7
TAP	78	0	1
TAP	78	24	0
HLD	78	48	1	48
TAP	78	96	3
HLD	78	120	1	48
TAP	78	168	7
HLD	78	192	2	48
TAP	78	240	5
HLD	78	264	2	48
TAP	78	312	4
TAP	78	336	4
TAP	78	360	3
TAP	79	0	5
TAP	79	48	6
TAP	79	48	7
TAP	79	72	6
TAP	79	72	7
TAP	79	120	5
TAP	79	144	3
TAP	79	168	4
TAP	79	192	2
TAP	79	240	0
TAP	79	240	1
TAP	79	264	0
TAP	79	264	1
TAP	79	312	2
TAP	79	312	7
TAP	79	336	2
TAP	79	336	7
TTP	80	0	0	C	1	M1
TTP	80	0	3	B	0	M1
TTP	80	0	4	B	0	M1
TTP	80	0	5	B	0	M1
TTP	80	0	6	B	0	M1
TAP	80	96	0
TAP	80	120	7
TAP	80	144	0
TAP	80	168	7
TAP	80	192	1
TAP	80	216	6
TAP	80	240	2
TAP	80	264	5
TAP	80	288	3
TAP	80	312	4
TAP	80	336	3
TAP	80	360	4
STR	81	0	3
SCL	81	0	3	96	48	0
TAP	81	96	3
STR	81	96	6
SI_	81	96	6	96	48	2
TAP	81	192	6
STR	81	192	7
SI_	81	192	7	96	48	3
TAP	81	240	0
TAP	81	288	6
TAP	81	288	7
TAP	81	336	5
STR	82	0	2
SV_	82	0	2	96	48	7
STR	82	0	4
SV_	82	0	4	96	48	7
TAP	82	48	1
TAP	82	96	2
TAP	82	96	4
TAP	82	192	0
TAP	82	192	6
TAP	82	216	1
TAP	82	216	5
TAP	82	240	2
TAP	82	240	4
STR	82	288	1
SI_	82	288	1	96	48	5
TAP	82	336	5
TAP	83	0	1
STR	83	0	6
SCR	83	0	6	96	48	1
STR	83	96	2
SI_	83	96	2	96	48	6
TAP	83	96	6
TAP	83	192	2
STR	83	192	3
SI_	83	192	3	96	48	7
TAP	83	240	4
TAP	83	288	2
TAP	83	288	3
TAP	83	336	1
STR	84	0	0
SI_	84	0	0	96	48	4
STR	84	48	6
SI_	84	48	6	96	48	2
TAP	84	96	0
TAP	84	144	6
BST	84	192	7
SF_	84	192	7	96	48	3
TAP	85	0	1
TAP	85	0	5
TAP	85	96	3
TAP	85	96	4
TAP	85	144	3
TAP	85	144	4
STR	85	192	3
SI_	85	192	3	96	48	7
TAP	85	192	4
TAP	85	216	2
STR	85	240	1
SI_	85	240	1	96	48	5
TAP	85	288	3
TAP	85	336	1
TAP	86	0	6
TAP	86	96	3
TAP	86	96	4
TAP	86	144	3
TAP	86	144	4
TAP	86	192	3
STR	86	192	4
SI_	86	192	4	96	48	0
TAP	86	216	5
STR	86	240	6
SI_	86	240	6	96	48	2
TAP	86	288	4
TAP	86	336	6
TAP	87	0	1
TAP	87	24	1
TAP	87	48	3
TAP	87	72	3
TAP	87	96	2
TAP	87	120	2
TAP	87	144	5
TAP	87	168	5
TAP	87	192	4
TAP	87	216	4
TAP	87	240	6
TAP	87	264	6
TAP	87	288	1
TAP	87	312	1
TAP	87	336	7
TAP	87	360	7
BST	88	0	0
SF_	88	0	0	96	48	4
BRK	88	96	0
BST	88	192	2
SI_	88	192	2	96	48	5
BST	88	192	6
SI_	88	192	6	96	48	3
BRK	88	288	2
BRK	88	288	6
BRK	89	0	1
BRK	89	0	7
TAP	89	48	2
TAP	89	72	6
TAP	89	96	3
TAP	89	120	5
TAP	89	144	2
TAP	89	168	4
BRK	89	192	1
TAP	89	216	7
TAP	89	240	3
TAP	89	264	5
BRK	89	288	2
TAP	89	312	4
BRK	89	336	0
TAP	89	360	7
TAP	90	0	3
TAP	90	24	5
TAP	90	48	2
TAP	90	72	4
TAP	90	96	1
TAP	90	120	6
TAP	90	144	3
TAP	90	168	4
BRK	90	192	1
TAP	90	216	0
TAP	90	240	2
BRK	90	264	6
TAP	90	288	7
TAP	90	312	5
BRK	90	336	3
TAP	90	360	4
TAP	91	0	1
TAP	91	24	5
TAP	91	48	0
TAP	91	72	7
TAP	91	96	2
TAP	91	120	6
TAP	91	144	4
TAP	91	168	5
BRK	91	192	2
TAP	91	216	3
TAP	91	240	0
BRK	91	264	5
TAP	91	288	4
TAP	91	312	7
BRK	91	336	0
TAP	91	360	6
TAP	92	0	1
TAP	92	24	5
BRK	92	48	2
TAP	92	72	4
TAP	92	96	3
BRK	92	120	6
TAP	92	144	0
TAP	92	168	4
BRK	92	192	1
TAP	92	216	7
TAP	92	240	3
BRK	92	264	5
TAP	92	288	0
TAP	92	312	4
BRK	92	336	1
TAP	92	360	3
STR	93	0	2
SI_	93	0	2	96	48	7
BST	93	96	4
SI_	93	96	4	96	48	0
TAP	93	144	4
BST	93	192	3
SI_	93	192	3	96	48	7
TAP	93	192	4
TAP	93	240	3
TAP	93	288	3
BST	93	288	6
SI_	93	288	6	96	48	2
TAP	93	336	6
BST	94	0	1
SCL	94	0	1	96	48	6
TAP	94	0	6
TAP	94	48	1
TAP	94	96	1
BST	94	96	4
SI_	94	96	4	96	48	2
SV_	94	96	4	96	48	1
TAP	94	144	5
BST	94	192	4
SI_	94	192	4	96	48	6
SV_	94	192	4	96	48	7
BRK	94	288	4
BRK	95	0	0
TAP	95	24	1
TAP	95	48	2
TAP	95	72	3
TAP	95	96	5
TAP	95	120	6
TAP	95	144	7
TAP	95	168	0
BRK	95	192	3
TAP	95	216	2
TAP	95	240	1
TAP	95	264	0
TAP	95	288	6
TAP	95	312	5
TAP	95	336	4
TAP	95	360	3
BRK	96	0	0
TAP	96	24	1
TAP	96	48	2
TAP	96	72	3
BRK	96	96	0
TAP	96	96	4
TAP	96	120	7
TAP	96	144	6
TAP	96	168	5
BRK	96	192	0
TAP	96	192	4
TAP	96	216	1
TAP	96	240	2
TAP	96	264	3
BRK	96	288	6
TAP	96	304	7
TAP	96	320	6
TAP	96	336	7
TAP	96	352	6
TAP	96	368	7
BST	97	0	6
SI_	97	0	6	96	48	2
STR	97	96	0
SI_	97	96	0	96	48	4
TAP	97	96	6
TAP	97	192	0
STR	97	192	7
SI_	97	192	7	96	48	3
TAP	97	288	2
TAP	97	288	7
TAP	97	336	1
STR	98	0	0
SI_	98	0	0	96	48	3
STR	98	0	5
SI_	98	0	5	96	48	2
STR	98	96	0
SI_	98	96	0	96	48	5
STR	98	96	5
SCR	98	96	5	96	48	0
TAP	98	192	0
TAP	98	192	5
TAP	98	288	2
TAP	98	288	3
TAP	98	336	1
TAP	98	336	4
BST	99	0	0
SI_	99	0	0	96	48	4
BST	99	0	5
SI_	99	0	5	96	48	3
STR	99	96	0
SCL	99	96	0	96	48	5
SCR	99	96	0	96	48	3
TAP	99	96	5
TAP	99	192	0
TAP	99	288	2
TAP	99	288	6
TAP	99	336	2
TAP	99	336	6
STR	100	0	1
SUL	100	0	1	96	48	4
STR	100	0	7
SUR	100	0	7	96	48	4
TAP	100	96	1
TAP	100	96	7
TAP	100	192	3
TAP	100	216	5
TAP	100	240	3
TAP	100	264	5
TAP	100	288	2
TAP	100	312	4
TAP	100	336	2
TAP	100	360	4
STR	101	0	0
SI_	101	0	0	96	48	4
STR	101	48	7
SI_	101	48	7	96	48	3
BST	101	96	0
SCR	101	96	0	96	48	3
BST	101	144	7
SCL	101	144	7	96	48	4
BRK	101	192	0
BRK	101	240	7
BRK	101	288	0
XTP	101	300	1
XTP	101	312	2
XTP	101	324	3
BRK	101	336	7
XTP	101	348	6
XTP	101	360	5
XTP	101	372	4
STR	102	0	1
SI_	102	0	1	96	48	5
STR	102	48	0
SI_	102	48	0	96	48	4
BST	102	96	1
SCR	102	96	1	96	48	4
BST	102	144	0
SCL	102	144	0	96	48	5
BRK	102	192	1
BRK	102	240	0
BRK	102	288	1
XTP	102	300	2
XTP	102	312	3
XTP	102	324	4
BRK	102	336	0
XTP	102	348	7
XTP	102	360	6
XTP	102	372	5
BRK	103	0	2
TAP	103	24	4
TAP	103	48	2
TAP	103	72	4
BRK	103	96	3
TAP	103	120	5
TAP	103	144	3
TAP	103	168	6
BRK	103	192	2
TAP	103	216	7
TAP	103	240	2
TAP	103	264	6
BRK	103	288	1
TAP	103	312	5
TAP	103	336	0
TAP	103	360	4
BRK	104	0	7
TAP	104	24	3
BRK	104	48	7
TAP	104	72	3
BRK	104	96	7
TAP	104	120	3
BRK	104	144	7
TAP	104	168	3
XTP	104	192	0
XTP	104	192	4
XTP	104	204	1
XTP	104	204	5
XTP	104	216	2
XTP	104	216	6
XTP	104	228	3
XTP	104	228	7
BRK	104	240	0
XTP	104	252	1
XTP	104	264	2
XTP	104	276	3
XST	104	288	0
SI_	104	288	0	96	48	4
BRK	104	288	4
XTP	104	300	1
XTP	104	300	5
XTP	104	312	2
XTP	104	312	6
XTP	104	324	3
XTP	104	324	7
BRK	104	336	0
XTP	104	348	1
XTP	104	360	2
XTP	104	372	3
XST	105	0	0
TTP	105	0	0	B	0	M1
TTP	105	0	0	C	1	M1
SUR	105	0	0	96	864	2
BST	105	0	4
TTP	105	0	4	B	0	M1
SUR	105	0	4	96	864	6

T_REC_TAP	762
T_REC_BRK	81
T_REC_XTP	45
T_REC_HLD	35
T_REC_XHO	1
T_REC_STR	68
T_REC_BST	19
T_REC_XST	8
T_REC_TTP	31
T_REC_THO	1
T_REC_SLD	98
T_REC_ALL	1149
T_NUM_TAP	914
T_NUM_BRK	100
T_NUM_HLD	37
T_NUM_SLD	98
T_NUM_ALL	1149
T_JUDGE_TAP	1014
T_JUDGE_HLD	152
T_JUDGE_SLD	98
T_JUDGE_ALL	1264
TTM_EACHPAIRS	174
TTM_SCR_TAP	457000
TTM_SCR_BRK	260000
TTM_SCR_HLD	37000
TTM_SCR_SLD	147000
TTM_SCR_ALL	901000
TTM_SCR_S	864300
TTM_SCR_SS	891000
TTM_RAT_ACV	10112

