VERSION	0.00.00	1.03.00
FES_MODE	0
BPM_DEF	190.000	190.000	190.000	190.000
MET_DEF	4	4
RESOLUTION	384
CLK_DEF	384
COMPATIBLE_CODE	MA2

BPM	0	0	190.000
MET	0	0	4	4

HLD	1	0	3	192
BRK	1	0	4
HLD	1	192	2	192
HLD	2	0	1	192
HLD	2	192	0	192
HLD	3	0	7	192
HLD	3	192	6	192
HLD	4	0	5	192
TAP	4	192	4
STR	5	0	3
SV_	5	0	3	96	144	0
STR	5	0	4
SI_	5	0	4	96	144	7
STR	6	0	0
SCL	6	0	0	96	192	4
SCR	6	0	0	96	192	4
STR	7	0	6
SXL	7	0	6	96	192	4
XST	8	0	5
SXL	8	0	5	96	168	6
SXR	8	0	5	96	168	4
STR	9	0	4
SUL	9	0	4	96	144	7
HLD	9	0	6	384
STR	10	0	7
SUR	10	0	7	96	144	4
TAP	10	192	5
HLD	11	0	1	384
STR	11	0	3
SUR	11	0	3	96	144	0
STR	12	0	0
SUL	12	0	0	96	144	3
TAP	12	192	2
XTP	13	0	1
XTP	13	96	0
XTP	13	192	7
XTP	13	288	6
XTP	14	0	5
XTP	14	96	4
XTP	14	192	3
XTP	14	288	3
XTP	14	288	4
TAP	15	0	2
TAP	15	48	2
TAP	15	96	5
TAP	15	144	5
TAP	15	192	1
TAP	15	240	1
TAP	15	288	6
TAP	15	336	6
TAP	16	0	0
TAP	16	24	7
TAP	16	48	0
TAP	16	72	7
TAP	16	96	0
TAP	16	120	7
TAP	16	144	0
TAP	16	168	7
TAP	16	192	0
TAP	16	216	7
TAP	16	240	0
TAP	16	264	7
STR	16	288	0
SI_	16	288	0	96	48	4
XTP	17	96	2
XHO	17	96	6	96
TAP	17	192	4
HLD	17	240	4	96
HLD	17	336	2	96
HLD	18	48	0	96
TAP	18	144	7
STR	18	192	7
SI_	18	192	7	96	48	3
XTP	18	288	2
TAP	19	0	2
TAP	19	0	4
HLD	19	96	1	96
TAP	19	96	5
TAP	19	192	3
HLD	19	240	3	96
HLD	19	336	5	96
HLD	20	48	7	96
TAP	20	144	0
TAP	20	192	0
TAP	20	192	7
TAP	20	288	2
TAP	20	288	5
TAP	21	0	6
TAP	21	0	7
HLD	21	96	0	96
TAP	21	96	5
TAP	21	192	2
HLD	21	240	2	96
HLD	21	336	4	96
HLD	22	48	6	96
TAP	22	144	7
TAP	22	192	6
TAP	22	192	7
TAP	22	288	3
TAP	22	288	4
TAP	23	0	0
TAP	23	0	1
TAP	23	96	2
HLD	23	96	7	96
TAP	23	192	5
HLD	23	240	5	96
HLD	23	336	3	96
HLD	24	48	1	96
TAP	24	144	0
STR	24	192	0
SI_	24	192	0	96	48	4
BRK	24	288	3
TAP	25	0	2
TAP	25	24	3
TAP	25	48	2
TAP	25	72	3
TAP	25	96	2
TAP	25	144	4
TAP	25	168	3
TAP	25	192	4
TAP	25	216	3
TAP	25	240	4
TAP	25	288	2
TAP	25	312	3
TAP	25	336	2
TAP	25	360	3
STR	26	0	2
SXR	26	0	2	96	192	4
TAP	27	0	5
TAP	27	24	4
TAP	27	48	5
TAP	27	72	4
TAP	27	96	5
TAP	27	144	3
TAP	27	168	4
TAP	27	192	3
TAP	27	216	4
TAP	27	240	3
TAP	27	288	5
TAP	27	312	4
TAP	27	336	5
TAP	27	360	4
STR	28	0	5
SXL	28	0	5	96	192	0
TAP	29	0	1
TAP	29	24	0
TAP	29	48	1
TAP	29	72	0
TAP	29	96	1
TAP	29	144	7
TAP	29	168	0
TAP	29	192	7
TAP	29	216	0
TAP	29	240	7
TAP	29	288	1
TAP	29	312	0
TAP	29	336	1
TAP	29	360	0
STR	30	0	1
SXL	30	0	1	96	192	7
TAP	31	0	6
TAP	31	24	7
TAP	31	48	6
TAP	31	72	7
TAP	31	96	6
TAP	31	144	0
TAP	31	168	7
TAP	31	192	0
TAP	31	216	7
TAP	31	240	0
TAP	31	288	6
TAP	31	312	7
TAP	31	336	6
TAP	31	360	7
STR	32	0	6
SI_	32	0	6	96	48	3
XHO	32	192	2	48
XHO	32	192	4	48
HLD	32	288	3	48
HLD	32	288	5	48
TTP	33	0	0	C	1	M1
TTP	33	0	2	B	0	M1
TTP	33	0	5	B	0	M1
TTP	34	0	7	E	0	M1
TTP	34	192	6	E	0	M1
TTP	35	0	5	E	0	M1
TTP	35	192	4	E	0	M1
TTP	36	0	3	E	0	M1
TTP	36	192	2	E	0	M1
TTP	37	0	7	B	0	M1
TTP	37	96	6	B	0	M1
TTP	37	192	5	B	0	M1
TTP	37	288	4	B	0	M1
TTP	38	0	3	B	0	M1
TTP	38	96	2	B	0	M1
TTP	38	192	1	B	0	M1
XTP	38	288	0
XTP	38	288	7
XTP	39	0	6
XTP	39	32	7
XTP	39	64	6
XTP	39	96	1
XTP	39	128	0
XTP	39	160	1
XTP	39	192	6
XTP	39	224	7
XTP	39	256	6
XTP	39	288	1
XTP	39	320	0
XTP	39	352	1
STR	40	0	7
SF_	40	0	7	96	96	3
BRK	40	288	1
BRK	40	288	5
HLD	41	0	6	96
TAP	41	96	7
TAP	41	144	0
HLD	41	144	5	96
TAP	41	240	4
TAP	41	288	3
HLD	41	288	6	96
TAP	42	0	7
TAP	42	96	4
TAP	42	96	5
TAP	42	192	3
TAP	42	240	2
TAP	42	288	1
TAP	42	336	0
STR	43	0	7
SLL	43	0	7	96	144	2
SLL	43	0	7	96	144	3
STR	44	0	3
SLL	44	0	3	96	144	6
SLL	44	0	3	96	144	7
HLD	45	0	5	96
TAP	45	96	4
TAP	45	144	3
HLD	45	144	6	96
TAP	45	240	7
TAP	45	288	0
HLD	45	288	5	96
TAP	46	0	4
TAP	46	96	6
TAP	46	96	7
TAP	46	192	0
TAP	46	240	1
TAP	46	288	2
TAP	46	336	3
STR	47	0	4
SXL	47	0	4	96	192	0
SXR	47	0	4	96	192	0
XST	48	0	0
SXL	48	0	0	96	192	3
SXR	48	0	0	96	192	5
HLD	49	0	2	96
TAP	49	96	3
HLD	49	144	1	96
TAP	49	144	4
TAP	49	240	0
HLD	49	288	2	96
TAP	49	288	7
TAP	50	0	3
TAP	50	96	0
TAP	50	96	1
TAP	50	192	7
TAP	50	240	6
TAP	50	288	5
TAP	50	336	4
STR	51	0	3
SLL	51	0	3	96	144	6
SLL	51	0	3	96	144	7
STR	52	0	7
SLL	52	0	7	96	144	2
SLL	52	0	7	96	144	3
HLD	53	0	1	96
TAP	53	96	0
HLD	53	144	2	96
TAP	53	144	7
TAP	53	240	3
HLD	53	288	1	96
TAP	53	288	4
TAP	54	0	0
TAP	54	96	2
TAP	54	96	3
TAP	54	192	4
TAP	54	240	5
TAP	54	288	6
TAP	54	336	7
STR	55	0	0
SXL	55	0	0	96	192	3
SXR	55	0	0	96	192	5
THO	56	0	0	384	C	1	M1
TTP	58	0	2	E	0	M1
TTP	58	0	6	E	0	M1
TTP	59	0	5	E	0	M1
TTP	59	192	4	E	0	M1
TTP	60	0	3	E	0	M1
TTP	60	192	2	E	0	M1
TTP	61	0	1	B	0	M1
TTP	61	0	1	E	0	M1
TTP	61	192	0	E	0	M1
TTP	62	0	6	B	0	M1
TTP	62	0	7	E	0	M1
TTP	62	192	6	E	0	M1
TTP	63	0	3	E	0	M1
TTP	63	0	5	E	0	M1
TTP	63	192	2	E	0	M1
TTP	63	192	6	E	0	M1
TTP	64	0	1	E	0	M1
TTP	64	0	7	E	0	M1
XTP	64	192	0
XTP	64	192	7
TAP	65	0	6
HLD	65	96	6	288
TTP	65	192	6	E	0	M1
TAP	66	0	4
HLD	66	96	4	288
TTP	66	192	4	E	0	M1
TAP	67	0	2
HLD	67	96	2	288
TTP	67	192	2	E	0	M1
TAP	68	0	0
TAP	68	96	1
TAP	68	96	7
TAP	68	192	2
TAP	68	192	6
TTP	69	0	0	C	0	M1
STR	71	0	2
SCL	71	0	2	96	288	5
STR	72	0	4
SF_	72	0	4	96	144	0
BRK	73	0	2
BST	73	0	6
SI_	73	0	6	96	48	2
TAP	73	96	7
STR	73	192	1
SLR	73	192	1	96	96	7
TAP	73	264	3
TAP	73	336	5
STR	74	0	5
SI_	74	0	5	96	48	1
TAP	74	96	4
STR	74	192	2
SLL	74	192	2	96	96	4
TAP	74	264	0
TAP	74	336	6
STR	75	0	6
SI_	75	0	6	96	48	2
TAP	75	96	7
STR	75	192	1
SLR	75	192	1	96	96	0
TAP	75	264	3
TAP	75	336	5
XTP	76	0	6
XHO	76	48	7	72
HLD	76	120	5	72
HLD	76	192	3	72
HLD	76	264	1	72
TAP	76	336	0
TAP	77	0	0
TAP	77	0	1
TAP	77	96	6
TAP	77	96	7
TAP	77	144	0
TAP	77	144	5
TAP	77	240	2
TAP	77	240	3
TAP	77	288	1
TAP	77	288	4
TAP	78	0	2
TAP	78	0	6
TAP	78	48	2
TAP	78	48	6
TAP	78	96	1
TAP	78	120	0
TAP	78	168	0
TAP	78	192	2
TAP	78	240	6
TAP	78	264	7
TAP	78	312	7
TAP	78	336	5
HLD	79	0	1	72
TAP	79	72	0
TAP	79	144	2
TAP	79	144	7
HLD	79	192	6	72
TAP	79	264	7
TAP	79	336	0
TAP	79	336	5
STR	80	0	0
SCR	80	0	0	96	144	6
TAP	80	0	5
TTP	80	96	0	C	1	M1
TTP	80	96	7	B	0	M1
STR	81	0	5
SI_	81	0	5	96	48	0
HLD	81	96	1	96
TAP	81	192	3
STR	81	240	3
SI_	81	240	3	96	48	7
STR	81	336	0
SCR	81	336	0	96	48	3
TAP	82	48	6
HLD	82	96	6	96
TAP	82	192	4
TAP	82	240	4
TAP	82	288	3
TAP	82	288	5
STR	83	0	2
SI_	83	0	2	96	48	7
HLD	83	96	6	96
TAP	83	192	4
STR	83	240	4
SI_	83	240	4	96	48	0
STR	83	336	7
SCL	83	336	7	96	48	4
TAP	84	48	1
STR	84	96	1
SLR	84	96	1	96	72	5
BRK	84	192	6
TAP	85	0	0
TAP	85	0	7
TAP	85	96	7
TAP	85	144	6
STR	85	192	5
SI_	85	192	5	96	48	0
STR	85	240	4
SI_	85	240	4	96	48	1
XTP	86	96	0
TAP	86	144	1
STR	86	192	2
SI_	86	192	2	96	48	7
STR	86	240	3
SI_	86	240	3	96	48	6
BRK	87	0	0
TAP	87	96	1
TAP	87	96	6
TAP	87	144	1
TAP	87	144	6
TAP	87	192	2
TAP	87	192	5
TAP	87	240	2
TAP	87	240	5
TAP	87	288	3
TAP	87	312	4
TAP	87	336	3
TAP	87	360	4
XHO	88	0	3	48
XHO	88	96	2	48
XHO	88	96	4	48
XHO	88	192	1	48
XHO	88	192	5	48
BRK	88	288	0
BRK	88	288	6
STR	89	0	1
SI_	89	0	1	96	48	5
TAP	89	0	5
TAP	89	96	0
STR	89	192	6
SLL	89	192	6	96	96	0
TAP	89	264	4
TAP	89	336	2
STR	90	0	2
SI_	90	0	2	96	48	6
TAP	90	96	3
STR	90	192	5
SLR	90	192	5	96	96	3
TAP	90	264	7
TAP	90	336	1
STR	91	0	1
SI_	91	0	1	96	48	5
TAP	91	96	0
STR	91	192	6
SLL	91	192	6	96	96	7
TAP	91	264	4
TAP	91	336	2
XTP	92	0	1
XHO	92	48	0	72
HLD	92	120	2	72
HLD	92	192	4	72
HLD	92	264	6	72
TAP	92	336	0
STR	93	0	0
SCR	93	0	0	96	48	3
BRK	93	96	5
TAP	93	144	6
STR	93	192	7
SCL	93	192	7	96	48	4
TAP	93	240	2
TAP	93	288	1
STR	93	336	0
SCR	93	336	0	96	48	3
XTP	94	0	5
TAP	94	48	6
TAP	94	96	7
XTP	94	144	2
TAP	94	192	1
TAP	94	192	6
TAP	94	240	1
TAP	94	240	6
TAP	94	288	0
TAP	94	288	7
TAP	95	0	0
TAP	95	48	1
TAP	95	96	2
TAP	95	144	3
TAP	95	192	4
TAP	95	240	5
TAP	95	288	6
TAP	95	336	7
TAP	96	0	0
TAP	96	0	7
TAP	96	48	0
TAP	96	48	7
TAP	96	96	1
TAP	96	96	6
TAP	96	144	1
TAP	96	144	6
TAP	96	192	2
TAP	96	192	5
TAP	96	240	2
TAP	96	240	5
BRK	96	288	3
BRK	96	288	4
TAP	97	0	7
TAP	97	24	6
TAP	97	48	5
TAP	97	96	0
TAP	97	144	0
TAP	97	192	6
TAP	97	216	5
TAP	97	240	4
TAP	97	288	0
TAP	97	336	0
TAP	98	0	5
TAP	98	24	4
TAP	98	48	3
TAP	98	96	0
TAP	98	144	0
TAP	98	192	1
TAP	98	192	3
TAP	98	240	1
TAP	98	240	3
TAP	98	288	0
TAP	98	288	4
TAP	99	0	0
TAP	99	24	1
TAP	99	48	2
TAP	99	96	7
TAP	99	144	7
TAP	99	192	1
TAP	99	216	2
TAP	99	240	3
TAP	99	288	7
TAP	99	336	7
TAP	100	0	2
TAP	100	24	3
TAP	100	48	4
TAP	100	96	7
TAP	100	144	7
TAP	100	192	4
TAP	100	192	6
TAP	100	240	4
TAP	100	240	6
TAP	100	288	3
TAP	100	288	7
TAP	101	0	7
TAP	101	24	6
TAP	101	48	5
TAP	101	96	0
TAP	101	144	0
TAP	101	192	6
TAP	101	216	5
TAP	101	240	4
TAP	101	288	0
TAP	101	336	0
TAP	102	0	5
TAP	102	24	4
TAP	102	48	3
TAP	102	96	0
TAP	102	144	0
TAP	102	192	1
TAP	102	192	3
TAP	102	240	1
TAP	102	240	3
TAP	102	288	0
TAP	102	288	4
TAP	103	0	1
TAP	103	24	6
TAP	103	48	1
TAP	103	72	6
TAP	103	96	1
TAP	103	120	6
TAP	103	144	1
TAP	103	168	6
TAP	103	192	0
TAP	103	216	7
TAP	103	240	0
TAP	103	264	7
TAP	103	288	0
TAP	103	312	7
TAP	103	336	0
TAP	103	360	7
XTP	104	0	0
TAP	104	24	1
TAP	104	48	2
TAP	104	72	3
TAP	104	96	4
TAP	104	120	5
TAP	104	144	6
TAP	104	168	7
TAP	104	192	0
TAP	104	216	1
TAP	104	240	2
TAP	104	264	3
TAP	104	288	4
TAP	104	312	5
TAP	104	336	6
TAP	104	360	7
TTP	105	0	0	C	1	M1
TTP	105	0	3	B	0	M1
TTP	105	0	4	B	0	M1

T_REC_TAP	356
T_REC_BRK	12
T_REC_XTP	33
T_REC_HLD	52
T_REC_XHO	10
T_REC_STR	50
T_REC_BST	1
T_REC_XST	2
T_REC_TTP	43
T_REC_THO	1
T_REC_SLD	62
T_REC_ALL	622
T_NUM_TAP	484
T_NUM_BRK	13
T_NUM_HLD	63
T_NUM_SLD	62
T_NUM_ALL	622
T_JUDGE_TAP	497
T_JUDGE_HLD	161
T_JUDGE_SLD	62
T_JUDGE_ALL	720
TTM_EACHPAIRS	75
TTM_SCR_TAP	242000
TTM_SCR_BRK	33800
TTM_SCR_HLD	63000
TTM_SCR_SLD	93000
TTM_SCR_ALL	431800
TTM_SCR_S	417600
TTM_SCR_SS	430500
TTM_RAT_ACV	10030

