VERSION	0.00.00	1.03.00
FES_MODE	0
BPM_DEF	190.000	190.000	190.000	190.000
MET_DEF	4	4
RESOLUTION	384
CLK_DEF	384
COMPATIBLE_CODE	MA2

BPM	0	0	190.000
MET	0	0	4	4

HLD	1	0	6	192
HLD	1	192	7	192
HLD	2	0	0	192
TAP	2	192	1
HLD	3	0	2	192
HLD	3	192	3	192
HLD	4	0	4	192
TAP	4	192	5
STR	5	0	6
SXL	5	0	6	96	480	3
STR	7	0	2
SXL	7	0	2	96	480	7
STR	9	0	6
SI_	9	0	6	96	144	3
STR	10	0	2
SI_	10	0	2	96	144	7
STR	11	0	6
SI_	11	0	6	96	144	3
TAP	12	0	2
TAP	12	96	2
TAP	12	192	3
TAP	12	192	4
TAP	13	0	5
TAP	13	96	6
TAP	13	192	7
TAP	13	288	0
TAP	14	0	1
TAP	14	96	2
TAP	14	192	3
TAP	14	288	4
TAP	15	0	5
TAP	15	48	5
TAP	15	96	5
TAP	15	192	6
TAP	15	240	6
TAP	15	288	6
TAP	16	0	7
TAP	16	48	7
TAP	16	96	7
TAP	16	192	0
TAP	16	240	0
TAP	16	288	0
TAP	17	0	1
TAP	17	0	6
BRK	17	96	1
BRK	17	96	6
TAP	17	192	1
TAP	17	192	6
TAP	18	0	5
TAP	18	96	5
TAP	18	192	4
TAP	18	192	5
TAP	19	0	2
TAP	19	96	2
TAP	19	192	3
TAP	19	288	3
TAP	20	0	4
TAP	20	96	4
TAP	20	192	3
TAP	20	192	5
TAP	21	0	6
TAP	21	96	6
TAP	21	192	7
TAP	21	288	7
TAP	22	0	0
TAP	22	96	0
TAP	22	192	1
TAP	22	192	7
TAP	23	0	2
TAP	23	96	2
TAP	23	192	3
TAP	23	288	3
TAP	24	0	3
TAP	24	0	4
TAP	24	96	3
TAP	24	96	4
BRK	24	192	2
BRK	24	192	5
STR	25	0	6
SCL	25	0	6	96	144	3
TAP	26	0	2
TAP	26	96	2
TAP	26	192	2
TAP	26	192	3
STR	27	0	1
SCR	27	0	1	96	144	4
TAP	28	0	5
TAP	28	96	5
TAP	28	192	4
TAP	28	192	5
STR	29	0	5
SI_	29	0	5	96	144	0
TAP	30	0	1
TAP	30	96	1
TAP	30	192	0
TAP	30	192	1
STR	31	0	2
SI_	31	0	2	96	144	7
TAP	32	0	6
TAP	32	96	0
TAP	32	96	7
BRK	32	192	0
BRK	32	192	7
TTP	33	0	1	E	0	L1
TTP	33	192	2	E	0	L1
TTP	34	0	3	E	0	L1
TTP	34	192	4	E	0	L1
TTP	35	0	5	E	0	L1
TTP	35	192	6	E	0	L1
TTP	36	0	7	E	0	L1
TTP	36	192	0	E	0	L1
XTP	37	0	0
XTP	37	96	1
TAP	37	192	2
TAP	37	288	3
TAP	38	0	4
TAP	38	96	5
TAP	38	192	6
TAP	38	288	7
TAP	39	0	0
TAP	39	0	7
TAP	39	96	1
TAP	39	96	6
TAP	39	192	2
TAP	39	192	5
TAP	39	288	3
TAP	39	288	4
BST	40	0	3
SI_	40	0	3	96	144	0
BST	40	0	4
SI_	40	0	4	96	144	7
TAP	41	0	6
TAP	41	48	6
TAP	41	96	6
TAP	41	192	6
TAP	41	192	7
TAP	41	288	6
TAP	41	288	7
TAP	42	0	5
TAP	42	96	4
TAP	42	96	5
TAP	42	192	3
TAP	42	288	3
TAP	42	288	4
STR	43	0	2
SI_	43	0	2	96	144	7
STR	44	0	6
SI_	44	0	6	96	144	2
TAP	45	0	1
TAP	45	48	1
TAP	45	96	1
TAP	45	192	0
TAP	45	192	1
TAP	45	288	0
TAP	45	288	1
TAP	46	0	2
TAP	46	96	2
TAP	46	96	3
TAP	46	192	4
TAP	46	288	3
TAP	46	288	4
STR	47	0	5
SI_	47	0	5	96	144	0
STR	48	0	1
SI_	48	0	1	96	144	4
TAP	49	0	5
TAP	49	48	5
TAP	49	96	5
TAP	49	192	4
TAP	49	192	5
TAP	49	288	4
TAP	49	288	5
TAP	50	0	6
TAP	50	96	6
TAP	50	96	7
TAP	50	192	0
TAP	50	288	0
TAP	50	288	7
STR	51	0	1
SI_	51	0	1	96	144	4
STR	52	0	5
SI_	52	0	5	96	144	0
TAP	53	0	1
TAP	53	48	1
TAP	53	96	1
TAP	53	192	2
TAP	53	192	3
TAP	53	288	2
TAP	53	288	3
TAP	54	0	1
TAP	54	96	0
TAP	54	96	1
TAP	54	192	7
TAP	54	288	0
TAP	54	288	7
STR	55	0	0
SXL	55	0	0	96	432	3
STR	55	0	7
SXR	55	0	7	96	432	4
TTP	57	0	4	E	0	L1
TTP	57	192	3	E	0	L1
TTP	58	0	2	E	0	L1
TTP	59	0	4	E	0	L1
TTP	59	192	5	E	0	L1
TTP	60	0	6	E	0	L1
TTP	61	0	3	E	0	L1
TTP	61	192	2	B	0	L1
TTP	62	0	1	B	0	L1
TTP	63	0	5	E	0	L1
TTP	63	192	5	B	0	L1
TTP	64	0	6	B	0	L1
TAP	65	0	1
TAP	65	96	1
TAP	65	192	0
TAP	65	192	1
TAP	66	0	6
TAP	66	96	6
TAP	66	192	6
TAP	66	192	7
TAP	67	0	5
TAP	67	96	5
TAP	67	192	4
TAP	67	192	5
TAP	68	0	3
TAP	68	96	3
TAP	68	192	3
TAP	68	192	4
STR	69	0	3
SXR	69	0	3	96	432	0
STR	69	0	4
SXL	69	0	4	96	432	7
HLD	71	0	0	192
HLD	71	0	7	192
STR	72	0	7
SI_	72	0	7	96	144	3
TAP	73	0	2
TAP	73	96	2
TAP	73	192	2
TAP	73	192	3
TAP	73	288	1
TAP	73	288	4
TAP	74	0	5
TAP	74	96	5
TAP	74	192	4
TAP	74	192	5
TAP	74	288	3
TAP	74	288	6
TAP	75	0	7
TAP	75	96	7
TAP	75	192	0
TAP	75	192	7
TAP	75	288	1
TAP	75	288	6
TAP	76	0	2
TAP	76	96	2
TAP	76	96	3
TAP	76	192	1
TAP	76	192	4
HLD	77	0	5	96
TAP	77	96	4
TAP	77	192	4
TAP	77	192	5
TAP	77	288	4
TAP	77	288	5
HLD	78	0	2	96
TAP	78	96	3
TAP	78	192	2
TAP	78	192	3
TAP	78	288	2
TAP	78	288	3
TAP	79	0	5
TAP	79	96	4
TAP	79	96	5
TAP	79	192	2
TAP	79	288	2
TAP	79	288	3
STR	80	0	1
SCR	80	0	1	96	144	4
TAP	81	0	5
TAP	81	96	4
TAP	81	96	6
TAP	81	192	5
TAP	81	288	4
TAP	81	288	5
TAP	82	0	2
TAP	82	96	1
TAP	82	96	3
TAP	82	192	2
TAP	82	288	2
TAP	82	288	3
TAP	83	0	1
TAP	83	96	1
TAP	83	192	0
TAP	83	288	0
TAP	84	0	7
TAP	84	96	0
TAP	84	96	7
TAP	84	192	1
TAP	84	192	6
TAP	85	0	2
TAP	85	96	1
TAP	85	96	3
TAP	85	192	2
TAP	85	288	2
TAP	85	288	3
TAP	86	0	5
TAP	86	96	4
TAP	86	96	6
TAP	86	192	5
TAP	86	288	4
TAP	86	288	5
TAP	87	0	6
TAP	87	96	6
TAP	87	192	7
TAP	87	288	7
XTP	88	0	0
XTP	88	0	7
XTP	88	96	1
XTP	88	96	6
XTP	88	192	2
XTP	88	192	5
XTP	88	288	3
XTP	88	288	4
TAP	89	0	5
TAP	89	96	5
TAP	89	192	4
TAP	89	192	5
TAP	89	288	3
TAP	89	288	6
TAP	90	0	2
TAP	90	96	2
TAP	90	192	2
TAP	90	192	3
TAP	90	288	1
TAP	90	288	4
TAP	91	0	0
TAP	91	96	0
TAP	91	192	0
TAP	91	192	7
TAP	91	288	1
TAP	91	288	6
TAP	92	0	5
TAP	92	96	4
TAP	92	96	5
TAP	92	192	3
TAP	92	192	6
TAP	93	0	2
BRK	93	96	2
BRK	93	96	3
TAP	93	192	1
TAP	93	288	0
TAP	93	288	1
TAP	94	0	6
TAP	94	96	6
TAP	94	96	7
TAP	94	192	5
TAP	94	288	4
TAP	94	288	5
TAP	95	0	3
TAP	95	48	3
TAP	95	96	3
TAP	95	192	4
TAP	95	240	4
TAP	95	288	4
TAP	96	0	3
TAP	96	0	4
TAP	96	48	3
TAP	96	48	4
TAP	96	96	3
TAP	96	96	4
BRK	96	192	2
BRK	96	192	5
TAP	97	0	6
TAP	97	0	7
TAP	97	48	6
TAP	97	48	7
TAP	97	96	6
TAP	97	96	7
TAP	97	192	5
TAP	97	288	5
TAP	98	0	4
TAP	98	96	3
TAP	98	192	2
TAP	98	288	2
TAP	99	0	0
TAP	99	0	1
TAP	99	48	0
TAP	99	48	1
TAP	99	96	0
TAP	99	96	1
TAP	99	192	2
TAP	99	288	2
TAP	100	0	3
TAP	100	96	4
TAP	100	192	5
TAP	100	288	5
TAP	101	0	6
TAP	101	0	7
TAP	101	48	6
TAP	101	48	7
TAP	101	96	6
TAP	101	96	7
TAP	101	192	5
TAP	101	288	4
TAP	102	0	3
TAP	102	96	2
TAP	102	192	1
TAP	102	288	0
TAP	103	0	6
TAP	103	0	7
TAP	103	48	6
TAP	103	48	7
TAP	103	96	6
TAP	103	96	7
TAP	103	192	4
TAP	103	192	5
TAP	103	240	4
TAP	103	240	5
TAP	103	288	4
TAP	103	288	5
TAP	104	0	2
TAP	104	0	3
TAP	104	48	2
TAP	104	48	3
TAP	104	96	2
TAP	104	96	3
TAP	104	192	0
TAP	104	192	1
TAP	104	240	0
TAP	104	240	1
TAP	104	288	0
TAP	104	288	1
BRK	105	0	6
BST	105	0	7
SSR	105	0	7	96	480	3

T_REC_TAP	336
T_REC_BRK	11
T_REC_XTP	10
T_REC_HLD	10
T_REC_XHO	0
T_REC_STR	21
T_REC_BST	3
T_REC_XST	0
T_REC_TTP	20
T_REC_THO	0
T_REC_SLD	24
T_REC_ALL	435
T_NUM_TAP	387
T_NUM_BRK	14
T_NUM_HLD	10
T_NUM_SLD	24
T_NUM_ALL	435
T_JUDGE_TAP	401
T_JUDGE_HLD	36
T_JUDGE_SLD	24
T_JUDGE_ALL	461
TTM_EACHPAIRS	109
TTM_SCR_TAP	193500
TTM_SCR_BRK	36400
TTM_SCR_HLD	10000
TTM_SCR_SLD	36000
TTM_SCR_ALL	275900
TTM_SCR_S	266300
TTM_SCR_SS	274500
TTM_RAT_ACV	10051

