VERSION	0.00.00	1.03.00
FES_MODE	0
BPM_DEF	190.000	190.000	190.000	190.000
MET_DEF	4	4
RESOLUTION	384
CLK_DEF	384
COMPATIBLE_CODE	MA2

BPM	0	0	190.000
MET	0	0	4	4

TAP	5	0	3
TAP	5	192	3
TAP	6	0	3
TAP	7	0	4
TAP	7	192	4
TAP	8	0	4
XHO	9	0	3	384
XHO	9	0	4	384
HLD	11	0	2	384
HLD	11	0	5	384
HLD	13	0	1	384
HLD	13	0	6	384
HLD	15	0	0	384
HLD	15	0	7	384
TAP	17	0	0
TAP	17	192	0
TAP	18	0	1
TAP	18	192	1
TAP	19	0	2
TAP	19	192	2
TAP	20	0	2
TAP	20	0	3
TAP	20	192	2
TAP	20	192	3
TAP	21	0	4
TAP	21	192	4
TAP	22	0	5
TAP	22	192	5
TAP	23	0	6
TAP	23	192	6
TAP	24	0	0
TAP	24	0	7
TAP	25	0	6
TAP	25	192	6
TAP	26	0	6
TAP	26	0	7
TAP	27	0	5
TAP	27	192	5
TAP	28	0	4
TAP	28	0	5
TAP	29	0	2
TAP	29	192	2
TAP	30	0	2
TAP	30	0	3
TAP	31	0	1
TAP	31	192	1
TAP	32	0	0
TAP	32	0	1
HLD	33	0	2	384
HLD	33	0	3	384
HLD	35	0	4	384
HLD	35	0	5	384
TAP	37	0	3
TAP	37	192	3
TAP	38	0	4
TAP	38	192	4
TAP	39	0	3
TAP	39	0	4
TAP	39	192	3
TAP	39	192	4
TAP	40	0	2
TAP	40	0	5
TAP	41	0	1
TAP	41	96	1
TAP	41	192	1
TAP	42	0	0
TAP	42	0	1
TAP	43	0	2
TAP	43	96	2
TAP	43	192	2
TAP	44	0	2
TAP	44	0	3
TAP	45	0	5
TAP	45	96	5
TAP	45	192	5
TAP	46	0	4
TAP	46	0	5
TAP	47	0	6
TAP	47	96	6
TAP	47	192	6
TAP	48	0	6
TAP	48	0	7
TAP	49	0	0
TAP	49	96	0
TAP	49	192	0
TAP	50	0	1
TAP	50	96	1
TAP	50	192	0
TAP	50	192	1
TAP	51	0	7
TAP	51	96	7
TAP	51	192	7
TAP	52	0	6
TAP	52	96	6
TAP	52	192	6
TAP	52	192	7
TAP	53	0	5
TAP	53	96	5
TAP	53	192	5
TAP	54	0	4
TAP	54	96	4
TAP	54	192	3
TAP	54	192	4
TAP	55	0	2
TAP	55	96	2
TAP	55	192	2
TAP	56	0	3
TAP	56	96	3
TAP	56	192	3
TAP	56	192	4
BRK	57	0	2
BRK	57	0	5
TTP	59	0	3	B	0	L1
TTP	59	0	4	B	0	L1
TTP	60	0	2	B	0	L1
TTP	60	0	5	B	0	L1
TTP	61	0	1	B	0	L1
TTP	61	0	6	B	0	L1
TTP	62	0	0	B	0	L1
TTP	62	0	7	B	0	L1
TTP	63	0	1	B	0	L1
TTP	63	0	6	B	0	L1
TTP	64	0	0	C	0	L1
STR	65	0	0
SI_	65	0	0	96	288	4
STR	67	0	7
SI_	67	0	7	96	288	3
STR	69	0	3
SI_	69	0	3	96	288	0
STR	69	0	4
SI_	69	0	4	96	288	7
XHO	71	0	0	384
XHO	71	0	7	384
TAP	73	0	7
TAP	73	96	7
TAP	73	192	7
TAP	74	0	6
TAP	74	96	6
TAP	74	192	6
TAP	75	0	5
TAP	75	96	5
TAP	75	192	5
TAP	76	0	3
TAP	76	0	4
TAP	76	96	3
TAP	76	96	4
TAP	76	192	3
TAP	76	192	4
TAP	77	0	2
TAP	77	96	2
TAP	77	192	2
TAP	78	0	1
TAP	78	96	1
TAP	78	192	1
TAP	79	0	0
TAP	79	96	0
TAP	79	192	0
TAP	80	0	0
TAP	80	0	7
TAP	80	192	0
TAP	80	192	7
TAP	81	0	1
TAP	81	96	1
TAP	81	192	1
TAP	82	0	2
TAP	82	96	2
TAP	82	192	2
TAP	82	192	3
TAP	83	0	4
TAP	83	96	4
TAP	83	192	4
TAP	84	0	5
TAP	84	96	5
TAP	84	192	4
TAP	84	192	5
TAP	85	0	6
TAP	85	96	6
TAP	85	192	6
TAP	85	192	7
TAP	86	0	1
TAP	86	96	1
TAP	86	192	0
TAP	86	192	1
TAP	87	0	7
TAP	87	96	7
TAP	87	192	7
TAP	88	0	0
TAP	88	0	6
TAP	88	96	0
TAP	88	96	6
TAP	88	192	0
TAP	88	192	6
TAP	89	0	5
TAP	89	96	5
TAP	89	192	4
TAP	89	288	4
TAP	90	0	3
TAP	90	96	3
TAP	90	192	3
TAP	90	192	4
TAP	91	0	2
TAP	91	96	2
TAP	91	192	1
TAP	91	288	1
TAP	92	0	0
TAP	92	96	0
TAP	92	192	0
TAP	92	192	7
TAP	93	0	6
TAP	93	96	6
TAP	93	192	6
TAP	93	192	7
TAP	93	288	6
TAP	93	288	7
TAP	94	0	0
TAP	94	96	0
TAP	94	192	0
TAP	94	192	7
TAP	95	0	1
TAP	95	96	1
TAP	95	192	0
TAP	95	192	1
TAP	95	288	0
TAP	95	288	1
TAP	96	0	7
TAP	96	96	7
BRK	96	192	0
BRK	96	192	7
TAP	97	0	6
TAP	97	96	6
TAP	97	192	5
TAP	97	288	5
TAP	98	0	4
TAP	98	96	4
TAP	98	192	3
TAP	98	192	4
TAP	98	288	3
TAP	98	288	4
TAP	99	0	2
TAP	99	96	2
TAP	99	192	1
TAP	99	288	1
TAP	100	0	0
TAP	100	96	0
TAP	100	192	0
TAP	100	192	7
TAP	100	288	0
TAP	100	288	7
TAP	101	0	1
TAP	101	96	1
TAP	101	192	2
TAP	101	192	3
TAP	101	288	2
TAP	101	288	3
TAP	102	0	4
TAP	102	96	4
TAP	102	192	3
TAP	102	192	4
TAP	102	288	3
TAP	102	288	4
TAP	103	0	2
TAP	103	0	5
TAP	103	96	2
TAP	103	96	5
TAP	103	192	1
TAP	103	192	6
TAP	103	288	1
TAP	103	288	6
TAP	104	0	0
TAP	104	0	7
TAP	104	96	0
TAP	104	96	7
TAP	104	192	1
TAP	104	192	6
TAP	104	288	2
TAP	104	288	5
BRK	105	0	3
BRK	105	0	4

T_REC_TAP	239
T_REC_BRK	6
T_REC_XTP	0
T_REC_HLD	10
T_REC_XHO	4
T_REC_STR	4
T_REC_BST	0
T_REC_XST	0
T_REC_TTP	11
T_REC_THO	0
T_REC_SLD	4
T_REC_ALL	278
T_NUM_TAP	254
T_NUM_BRK	6
T_NUM_HLD	14
T_NUM_SLD	4
T_NUM_ALL	278
T_JUDGE_TAP	260
T_JUDGE_HLD	112
T_JUDGE_SLD	4
T_JUDGE_ALL	376
TTM_EACHPAIRS	64
TTM_SCR_TAP	127000
TTM_SCR_BRK	15600
TTM_SCR_HLD	14000
TTM_SCR_SLD	6000
TTM_SCR_ALL	162600
TTM_SCR_S	157150
TTM_SCR_SS	162000
TTM_RAT_ACV	10037

