VERSION	0.00.00	1.03.00
FES_MODE	0
BPM_DEF	126.000	126.000	126.000	126.000
MET_DEF	4	4
RESOLUTION	384
CLK_DEF	384
COMPATIBLE_CODE	MA2

BPM	0	0	126.000
MET	0	0	4	4

XTP	1	0	3
XTP	1	0	5
TAP	1	96	2
TAP	1	120	3
TAP	1	168	2
TAP	1	168	4
TAP	1	216	1
TAP	1	240	3
TAP	1	264	2
BRK	1	288	7
STR	2	0	0
SCL	2	0	0	96	144	1
TAP	2	0	6
TAP	2	96	4
TAP	2	192	6
HLD	2	240	6	72
HLD	2	312	7	72
STR	3	0	0
SCR	3	0	0	96	144	6
TAP	3	96	3
TAP	3	192	1
HLD	3	240	1	72
HLD	3	312	0	72
STR	4	0	7
SCL	4	0	7	96	144	1
TAP	4	96	4
TAP	4	192	6
HLD	4	240	6	72
HLD	4	312	7	72
TAP	5	0	0
TAP	5	48	0
TAP	5	96	1
TAP	5	96	7
TAP	5	144	2
TAP	5	168	3
TAP	5	192	2
TAP	5	216	3
TAP	5	240	2
TAP	5	288	1
TAP	5	288	4
STR	6	0	3
SCR	6	0	3	96	144	2
TAP	6	0	5
TAP	6	96	7
TAP	6	192	5
HLD	6	240	5	72
HLD	6	312	4	72
STR	7	0	3
SCL	7	0	3	96	144	5
TAP	7	96	0
TAP	7	192	2
HLD	7	240	2	72
HLD	7	312	3	72
STR	8	0	4
SCR	8	0	4	96	144	2
TAP	8	96	7
TAP	8	192	5
HLD	8	240	5	72
HLD	8	312	4	72
TAP	9	0	5
TAP	9	24	5
TAP	9	72	3
TAP	9	96	4
TAP	9	120	2
TAP	9	168	1
TAP	9	168	5
TAP	9	216	0
TAP	9	240	7
TAP	9	264	0
TAP	9	288	7
TAP	9	312	1
TAP	9	312	6
TAP	10	0	3
TAP	10	0	4
HLD	10	96	2	72
TAP	10	96	4
TAP	10	168	3
TAP	10	192	2
TAP	10	240	2
TAP	10	288	1
TAP	10	288	3
TAP	10	336	2
TAP	11	0	3
TAP	11	0	4
TAP	11	96	3
HLD	11	96	5	72
TAP	11	168	4
TAP	11	192	4
TAP	11	240	5
TAP	11	264	4
TAP	11	288	5
TAP	11	312	3
TAP	11	360	3
TAP	12	0	4
HLD	12	96	2	72
TAP	12	96	4
TAP	12	168	3
TAP	12	192	2
TAP	12	240	2
STR	12	288	1
SUR	12	288	1	96	144	3
TAP	12	288	3
TAP	13	0	4
TAP	13	192	5
TAP	13	240	4
XTP	13	240	6
TAP	13	288	4
TAP	13	288	6
TAP	14	0	3
TAP	14	0	5
HLD	14	96	2	72
TAP	14	96	4
TAP	14	168	3
TAP	14	192	2
TAP	14	240	2
TAP	14	288	1
TAP	14	288	3
TAP	14	336	2
BRK	15	0	3
HLD	15	0	4	240
BRK	15	48	3
BRK	15	96	5
BRK	15	144	5
BRK	15	192	2
BRK	15	240	2
TAP	15	288	3
TAP	15	288	5
TAP	15	336	4
TAP	15	336	6
TAP	16	0	3
TAP	16	0	5
HLD	16	96	2	72
TAP	16	96	4
TAP	16	168	3
TAP	16	192	2
TAP	16	240	2
TAP	16	288	1
STR	16	288	3
SXR	16	288	3	96	144	4
TAP	16	336	4
TAP	17	0	5
TAP	17	192	5
TAP	17	240	4
XTP	17	240	6
TAP	17	288	4
STR	17	288	6
SI_	17	288	6	96	48	3
SI_	17	288	6	96	48	4
STR	18	0	6
SI_	18	0	6	96	48	0
SI_	18	0	6	96	48	1
TAP	18	96	6
TAP	18	192	2
TAP	18	216	3
TAP	18	240	2
STR	18	288	1
SV_	18	288	1	96	48	4
TAP	18	288	4
STR	19	0	6
SCL	19	0	6	96	48	3
TAP	19	48	6
STR	19	96	0
SSL	19	96	0	96	96	4
TAP	19	144	0
HLD	19	192	5	96
TAP	19	336	5
TAP	20	0	4
TAP	20	0	6
TAP	20	48	3
TAP	20	48	7
STR	20	96	0
SUL	20	96	0	96	48	3
TAP	20	96	2
STR	20	192	1
SCR	20	192	1	96	48	4
TAP	20	240	1
STR	20	288	7
SSR	20	288	7	96	96	3
TAP	20	336	7
BRK	21	0	0
TAP	21	192	2
TAP	21	216	3
TAP	21	240	2
STR	21	288	0
SI_	21	288	0	96	48	2
SI_	21	288	0	96	48	3
TAP	21	288	4
STR	22	0	0
SI_	22	0	0	96	48	5
SI_	22	0	0	96	48	6
TAP	22	96	0
TAP	22	192	2
TAP	22	216	3
TAP	22	240	2
HLD	22	288	1	288
TAP	22	288	4
TAP	23	0	5
TAP	23	48	5
STR	23	96	5
SV_	23	96	5	96	48	2
BRK	23	192	5
TAP	23	288	0
TAP	23	288	4
TAP	24	0	4
TAP	24	0	6
TAP	24	48	3
TAP	24	48	7
STR	24	96	0
SUL	24	96	0	96	48	3
TAP	24	96	2
STR	24	192	1
SI_	24	192	1	96	48	5
TAP	24	240	1
TAP	24	288	4
STR	25	0	3
SI_	25	0	3	96	48	7
STR	25	0	4
SI_	25	0	4	96	48	0
TAP	25	96	3
TAP	25	96	4
STR	25	192	3
SI_	25	192	3	96	48	1
STR	25	192	4
SI_	25	192	4	96	48	6
TAP	25	288	3
TAP	25	288	4
TTP	26	0	3	B	0	M1
TTP	26	0	3	E	0	M1
TTP	26	0	4	B	0	M1
TTP	26	0	5	E	0	M1
STR	26	96	0
SI_	26	96	0	96	48	4
TAP	26	192	0
TAP	26	192	7
XTP	26	288	3
XTP	26	288	5
XHO	26	336	3	72
XTP	26	336	5
TAP	27	24	4
TAP	27	48	3
TAP	27	96	2
TAP	27	96	4
TAP	27	144	2
HLD	27	144	4	72
TAP	27	216	3
TAP	27	240	4
TAP	27	288	3
TAP	27	288	5
BRK	27	336	2
BRK	27	336	6
TAP	28	96	3
TAP	28	96	4
TAP	28	144	6
TAP	28	168	4
TAP	28	216	4
TAP	28	240	5
TAP	28	288	3
TAP	28	288	4
HLD	28	336	1	72
TAP	28	336	3
TAP	29	24	3
TAP	29	48	2
TAP	29	96	3
TAP	29	96	4
TAP	29	144	5
TAP	29	168	4
TAP	29	192	5
TAP	29	216	4
TAP	29	240	5
XTP	29	288	3
XTP	29	288	6
XTP	29	336	2
XTP	29	336	5
TAP	30	0	1
HLD	30	0	4	48
TAP	30	48	2
HLD	30	96	3	48
TAP	30	96	6
TAP	30	144	5
TAP	30	192	0
HLD	30	192	4	48
TAP	30	240	1
HLD	30	288	2	48
TAP	30	288	7
TAP	30	336	6
TAP	31	0	1
HLD	31	0	5	48
TAP	31	48	2
HLD	31	96	3	48
TAP	31	96	6
TAP	31	144	5
TAP	31	192	1
HLD	31	192	4	48
TAP	31	240	2
HLD	31	288	3	48
TAP	31	288	6
TAP	31	336	5
TAP	32	0	2
TAP	32	0	4
TAP	32	48	2
TAP	32	48	4
TAP	32	96	3
TAP	32	96	5
TAP	32	144	3
TAP	32	144	5
TAP	32	192	1
TAP	32	192	7
TAP	32	240	2
TAP	32	240	6
TAP	32	288	3
TAP	32	288	5
BRK	32	336	0
TTP	32	336	0	C	1	M1
TAP	33	240	3
TAP	33	240	5
TAP	33	288	2
TAP	33	288	6
STR	33	336	1
SI_	33	336	1	96	48	3
TAP	34	0	0
XST	34	48	1
SI_	34	48	1	96	48	5
TAP	34	48	7
TAP	34	96	7
TAP	34	144	0
XST	34	144	1
SI_	34	144	1	96	48	3
TAP	34	192	0
XST	34	240	1
SI_	34	240	1	96	48	5
TAP	34	240	7
TAP	34	288	7
TAP	34	336	0
XTP	34	336	1
TAP	35	0	0
TAP	35	48	4
XST	35	48	7
SI_	35	48	7	96	48	5
TAP	35	96	4
TAP	35	144	3
XST	35	144	7
SI_	35	144	7	96	48	2
TAP	35	192	3
TAP	35	240	4
XST	35	240	7
SI_	35	240	7	96	48	5
TAP	35	288	4
TAP	35	336	3
XTP	35	336	7
TAP	36	0	3
XST	36	48	2
SI_	36	48	2	96	48	0
TAP	36	48	4
TAP	36	96	4
XST	36	144	2
SI_	36	144	2	96	48	6
TAP	36	144	3
TAP	36	192	3
XTP	36	240	2
TAP	36	240	4
STR	36	288	4
SCR	36	288	4	96	96	0
STR	37	0	0
SCR	37	0	0	96	96	4
TAP	37	96	4
TAP	37	192	0
TAP	37	288	0
TAP	37	288	6
TAP	37	336	0
STR	37	336	6
SI_	37	336	6	96	48	4
TAP	38	0	7
TAP	38	48	0
XST	38	48	6
SI_	38	48	6	96	48	2
TAP	38	96	0
XST	38	144	6
SI_	38	144	6	96	48	4
TAP	38	144	7
TAP	38	192	7
TAP	38	240	0
XST	38	240	6
SI_	38	240	6	96	48	2
TAP	38	288	0
XTP	38	336	6
TAP	38	336	7
TAP	39	0	7
TAP	39	48	0
TAP	39	48	3
TAP	39	96	1
TAP	39	96	4
TAP	39	144	2
TAP	39	144	5
TAP	39	192	3
TAP	39	192	6
TAP	39	240	5
TAP	39	264	4
TAP	39	288	6
TAP	39	312	4
TAP	39	336	5
STR	40	0	3
SCL	40	0	3	96	48	1
STR	40	0	6
SCL	40	0	6	96	48	4
TAP	40	48	4
TAP	40	48	7
TAP	40	96	3
TAP	40	96	6
STR	40	192	3
SCL	40	192	3	96	48	1
STR	40	192	6
SCL	40	192	6	96	48	4
TAP	40	240	4
TAP	40	240	7
TAP	40	288	3
TAP	40	288	6
STR	41	0	0
SCL	41	0	0	96	48	5
STR	41	48	5
SCL	41	48	5	96	48	2
STR	41	96	2
SCL	41	96	2	96	32	0
TAP	41	192	7
TAP	41	288	0
TAP	41	288	6
TAP	41	336	0
STR	41	336	6
SI_	41	336	6	96	48	4
TAP	42	0	7
TAP	42	48	0
XST	42	48	6
SI_	42	48	6	96	48	2
TAP	42	96	0
XST	42	144	6
SI_	42	144	6	96	48	4
TAP	42	144	7
TAP	42	192	7
TAP	42	240	0
XST	42	240	6
SI_	42	240	6	96	48	2
TAP	42	288	0
XTP	42	336	6
TAP	42	336	7
TAP	43	0	7
XST	43	48	0
SI_	43	48	0	96	48	2
TAP	43	48	3
TAP	43	96	3
XST	43	144	0
SI_	43	144	0	96	48	5
TAP	43	144	4
TAP	43	192	4
XST	43	240	0
SI_	43	240	0	96	48	2
TAP	43	240	3
TAP	43	288	3
XTP	43	336	0
TAP	43	336	4
STR	44	0	5
SV_	44	0	5	96	48	0
TAP	44	48	5
STR	44	96	3
SCL	44	96	3	96	48	0
TAP	44	144	3
STR	44	192	4
SV_	44	192	4	96	48	7
TAP	44	240	4
STR	44	288	2
SCL	44	288	2	96	96	6
TAP	44	336	2
STR	45	0	6
SCL	45	0	6	96	96	2
STR	45	96	2
SCL	45	96	2	96	96	6
TAP	45	192	6
TTP	45	288	0	C	0	M1
STR	46	0	1
SV_	46	0	1	96	48	2
STR	46	0	7
SV_	46	0	7	96	48	6
STR	46	96	1
SV_	46	96	1	96	48	4
STR	46	96	7
SV_	46	96	7	96	48	4
TAP	46	192	1
TAP	46	192	7
TAP	46	288	2
TAP	46	288	6
STR	47	0	0
SV_	47	0	0	96	48	1
STR	47	0	6
SV_	47	0	6	96	48	5
STR	47	96	0
SV_	47	96	0	96	48	3
STR	47	96	6
SV_	47	96	6	96	48	3
TAP	47	192	0
TAP	47	192	6
TAP	47	288	1
TAP	47	288	5
HLD	48	0	7	72
HLD	48	72	5	72
TAP	48	144	4
HLD	48	192	0	72
HLD	48	264	1	72
TAP	48	336	3
STR	49	0	2
SXR	49	0	2	96	120	7
STR	49	0	6
SXR	49	0	6	96	120	3
TAP	49	288	1
TAP	49	288	5
STR	49	336	6
SCL	49	336	6	96	48	4
TAP	50	0	6
XST	50	48	7
SI_	50	48	7	96	48	3
TAP	50	96	7
XST	50	144	4
SI_	50	144	4	96	48	0
TAP	50	192	4
XST	50	240	3
SCL	50	240	3	96	48	1
TAP	50	288	3
XST	50	336	0
SI_	50	336	0	96	48	4
TAP	51	0	0
XST	51	48	1
SCR	51	48	1	96	48	3
TAP	51	96	1
XST	51	144	4
SCR	51	144	4	96	48	6
TAP	51	192	4
XST	51	240	3
SI_	51	240	3	96	48	7
TAP	51	288	3
XST	51	336	6
SI_	51	336	6	96	48	4
TAP	52	0	6
XST	52	48	7
SI_	52	48	7	96	48	3
TAP	52	96	7
XTP	52	144	4
TAP	52	192	4
XTP	52	240	3
STR	52	288	2
SCL	52	288	2	96	96	6
STR	53	0	6
SCR	53	0	6	96	96	2
STR	53	96	4
SI_	53	96	4	96	48	7
TAP	53	192	4
TAP	53	288	2
TAP	53	288	6
STR	53	336	1
SCR	53	336	1	96	48	3
TAP	54	0	1
XST	54	48	0
SI_	54	48	0	96	48	4
TAP	54	96	0
XST	54	144	3
SI_	54	144	3	96	48	7
TAP	54	192	3
XST	54	240	4
SCR	54	240	4	96	48	6
TAP	54	288	4
XST	54	336	7
SI_	54	336	7	96	48	3
TAP	55	0	7
XST	55	48	6
SCL	55	48	6	96	48	4
TAP	55	96	6
XST	55	144	3
SCL	55	144	3	96	48	1
TAP	55	192	3
XST	55	240	4
SI_	55	240	4	96	48	0
TAP	55	288	4
XST	55	336	1
SI_	55	336	1	96	48	3
TAP	56	0	1
XST	56	48	0
SI_	56	48	0	96	48	4
TAP	56	96	0
XTP	56	144	3
TAP	56	192	3
XTP	56	240	4
STR	56	288	5
SCR	56	288	5	96	96	1
STR	57	0	1
SCL	57	0	1	96	96	5
STR	57	96	3
SI_	57	96	3	96	48	0
TAP	57	192	3
TAP	57	288	1
TAP	57	288	5
STR	57	336	6
SI_	57	336	6	96	48	3
TAP	58	0	6
XST	58	48	0
SI_	58	48	0	96	48	4
TAP	58	96	0
XST	58	144	5
SI_	58	144	5	96	48	7
TAP	58	192	5
XST	58	240	1
SI_	58	240	1	96	48	4
TAP	58	288	1
XST	58	336	6
SI_	58	336	6	96	48	3
TAP	59	0	6
XST	59	48	2
SI_	59	48	2	96	48	0
TAP	59	96	2
XST	59	144	5
SI_	59	144	5	96	48	7
TAP	59	192	5
XST	59	240	1
SI_	59	240	1	96	48	4
TAP	59	288	1
TAP	59	336	7
TAP	60	0	7
TAP	60	48	0
TAP	60	48	7
STR	60	96	6
SCR	60	96	6	96	48	1
TAP	60	144	6
STR	60	192	2
SCR	60	192	2	96	48	5
TAP	60	240	2
STR	60	288	6
SLR	60	288	6	96	96	2
TAP	60	336	6
STR	61	0	2
SLR	61	0	2	96	96	6
TAP	61	96	6
STR	61	192	7
SI_	61	192	7	96	48	3
TAP	61	288	0
TAP	61	288	7
STR	62	0	1
SCR	62	0	1	96	48	3
STR	62	0	6
SCR	62	0	6	96	48	0
STR	62	96	1
SV_	62	96	1	96	48	7
STR	62	96	6
SV_	62	96	6	96	48	4
TAP	62	192	1
TAP	62	192	6
TAP	62	288	0
TAP	62	288	5
STR	63	0	1
SCL	63	0	1	96	48	7
STR	63	0	6
SCL	63	0	6	96	48	4
STR	63	96	1
SV_	63	96	1	96	48	3
STR	63	96	6
SV_	63	96	6	96	48	0
TAP	63	192	1
TAP	63	192	6
TAP	63	288	2
TAP	63	288	6
STR	64	0	0
SCR	64	0	0	96	48	2
STR	64	0	7
SCL	64	0	7	96	48	5
STR	64	96	0
SI_	64	96	0	96	48	4
STR	64	96	7
SI_	64	96	7	96	48	3
TAP	64	192	0
TAP	64	192	7
BRK	64	288	2
BRK	64	288	5
TAP	65	0	6
TAP	65	24	7
BRK	65	72	4
BRK	65	72	5
BRK	65	120	2
BRK	65	120	3
TAP	65	168	1
TAP	65	192	0
TAP	65	216	1
BRK	65	264	2
BST	65	264	3
SCL	65	264	3	96	216	4
BRK	65	312	1
BRK	65	312	4
TTP	65	360	0	C	1	M1
TAP	66	304	2
TAP	66	320	3
TAP	66	336	4
TAP	66	352	5

T_REC_TAP	361
T_REC_BRK	21
T_REC_XTP	21
T_REC_HLD	34
T_REC_XHO	1
T_REC_STR	80
T_REC_BST	1
T_REC_XST	42
T_REC_TTP	7
T_REC_THO	0
T_REC_SLD	127
T_REC_ALL	695
T_NUM_TAP	511
T_NUM_BRK	22
T_NUM_HLD	35
T_NUM_SLD	127
T_NUM_ALL	695
T_JUDGE_TAP	533
T_JUDGE_HLD	69
T_JUDGE_SLD	127
T_JUDGE_ALL	729
TTM_EACHPAIRS	139
TTM_SCR_TAP	255500
TTM_SCR_BRK	57200
TTM_SCR_HLD	35000
TTM_SCR_SLD	190500
TTM_SCR_ALL	538200
TTM_SCR_S	519950
TTM_SCR_SS	536000
TTM_RAT_ACV	10041

