VERSION	0.00.00	1.03.00
FES_MODE	0
BPM_DEF	126.000	126.000	126.000	126.000
MET_DEF	4	4
RESOLUTION	384
CLK_DEF	384
COMPATIBLE_CODE	MA2

BPM	0	0	126.000
MET	0	0	4	4

XTP	1	0	2
XTP	1	0	5
XHO	1	96	3	72
XHO	1	168	4	72
XTP	1	240	3
XTP	1	288	2
XTP	1	288	5
STR	2	0	1
SI_	2	0	1	96	48	4
TAP	2	192	5
HLD	2	240	5	72
HLD	2	312	6	72
STR	3	0	7
SI_	3	0	7	96	48	3
TAP	3	192	2
HLD	3	240	2	72
HLD	3	312	1	72
STR	4	0	0
SI_	4	0	0	96	48	4
TAP	4	192	6
HLD	4	240	6	72
HLD	4	312	5	72
TAP	5	0	4
TAP	5	48	4
TAP	5	96	3
TAP	5	144	3
TAP	5	192	4
TAP	5	288	3
TAP	5	288	5
TAP	6	0	2
STR	6	0	4
SI_	6	0	4	96	48	0
TAP	6	192	1
HLD	6	240	1	72
HLD	6	312	2	72
STR	7	0	3
SI_	7	0	3	96	48	7
TAP	7	192	6
HLD	7	240	6	72
HLD	7	312	5	72
STR	8	0	4
SI_	8	0	4	96	48	0
TAP	8	192	1
TAP	8	192	6
TAP	8	288	2
TAP	8	288	5
XTP	9	0	3
XTP	9	24	4
XTP	9	72	4
XTP	9	96	3
XTP	9	144	3
XTP	9	168	4
XTP	9	216	4
XTP	9	240	3
XTP	9	288	2
XTP	9	288	5
TAP	10	0	3
HLD	10	96	2	72
TAP	10	96	4
HLD	10	168	3	72
TAP	10	240	2
TAP	10	288	1
TAP	10	288	4
TAP	11	0	4
TAP	11	96	3
HLD	11	96	5	72
HLD	11	168	4	72
TAP	11	240	5
TAP	11	288	3
TAP	11	288	6
TAP	12	0	3
HLD	12	96	2	72
TAP	12	96	4
HLD	12	168	3	72
TAP	12	240	2
STR	12	288	1
SCR	12	288	1	96	144	4
TAP	12	288	4
TAP	13	192	5
XTP	13	240	6
TAP	13	288	4
TAP	13	288	6
TAP	14	0	3
TAP	14	0	5
HLD	14	96	2	72
TAP	14	96	4
HLD	14	168	3	72
TAP	14	240	2
HLD	14	288	1	96
TAP	14	288	4
BRK	15	0	3
BRK	15	96	0
BRK	15	96	7
BRK	15	192	4
BRK	15	192	6
TAP	15	288	4
TAP	15	336	5
TAP	16	0	3
TAP	16	0	5
HLD	16	96	2	72
TAP	16	96	4
HLD	16	168	3	72
TAP	16	240	2
STR	16	288	1
SCR	16	288	1	96	144	4
TAP	16	288	4
TAP	17	192	5
XTP	17	240	6
TAP	17	288	4
TAP	17	288	6
TAP	18	0	3
STR	18	0	7
SCL	18	0	7	96	96	3
TAP	18	192	2
TAP	18	240	2
TAP	18	288	3
STR	19	0	0
SCR	19	0	0	96	96	4
TAP	19	0	4
HLD	19	192	5	96
TAP	19	288	4
TAP	19	336	4
TAP	20	0	3
TAP	20	0	6
TAP	20	96	2
TAP	20	144	2
HLD	20	192	1	96
TAP	20	192	3
STR	20	288	0
SCL	20	288	0	96	96	4
TAP	21	192	2
TAP	21	192	3
TAP	21	240	2
TAP	21	240	3
HLD	21	288	1	96
STR	21	288	4
SCR	21	288	4	96	96	0
TAP	22	192	2
TAP	22	240	2
TAP	22	288	1
HLD	22	288	4	96
TAP	23	0	3
TAP	23	48	3
HLD	23	96	2	96
STR	23	96	5
SV_	23	96	5	96	48	2
XTP	23	288	1
TAP	24	0	2
TAP	24	48	2
TAP	24	96	1
TAP	24	96	3
TAP	24	192	5
TAP	24	240	5
TAP	24	288	4
TAP	24	288	6
TAP	25	0	3
STR	25	0	7
SI_	25	0	7	96	48	3
STR	25	192	0
SI_	25	192	0	96	48	4
TAP	25	192	4
XTP	26	0	3
XTP	26	0	6
TAP	26	96	7
TAP	26	192	6
XTP	26	288	3
XTP	26	288	5
XHO	26	336	3	288
XTP	26	336	5
TTP	27	48	4	B	0	M1
TTP	27	144	2	B	0	M1
TTP	27	240	0	C	0	M1
HLD	27	336	1	96
TAP	27	336	7
TAP	28	48	0
TAP	28	96	0
TAP	28	192	2
HLD	28	192	7	96
TAP	28	288	4
HLD	28	336	4	192
TTP	29	48	5	B	0	M1
TTP	29	144	3	B	0	M1
TAP	29	240	2
TAP	29	240	5
TAP	29	288	2
TAP	29	288	5
HLD	29	336	2	48
HLD	29	336	5	48
HLD	30	48	2	48
HLD	30	48	5	48
HLD	30	144	3	48
HLD	30	144	4	48
HLD	30	240	3	48
HLD	30	240	4	48
HLD	30	336	4	48
HLD	30	336	5	48
HLD	31	48	4	48
HLD	31	48	5	48
HLD	31	144	3	48
HLD	31	144	4	48
HLD	31	240	2	48
HLD	31	240	3	48
XTP	31	336	1
XTP	31	336	4
XTP	32	0	1
XTP	32	0	4
TAP	32	96	2
TAP	32	144	2
TAP	32	192	4
TAP	32	240	3
TAP	32	288	5
BRK	32	336	2
BRK	32	336	6
TAP	33	240	1
TAP	33	240	6
STR	33	288	0
SI_	33	288	0	96	48	2
STR	33	288	7
SI_	33	288	7	96	48	3
STR	34	96	0
SI_	34	96	0	96	48	4
STR	34	96	7
SI_	34	96	7	96	48	5
STR	34	288	0
SI_	34	288	0	96	48	2
STR	34	288	7
SI_	34	288	7	96	48	3
STR	35	96	0
SI_	35	96	0	96	48	4
STR	35	96	7
SI_	35	96	7	96	48	5
STR	35	288	6
SI_	35	288	6	96	48	4
STR	35	288	7
SI_	35	288	7	96	48	3
STR	36	96	0
SI_	36	96	0	96	48	4
STR	36	96	1
SI_	36	96	1	96	48	3
TAP	36	288	6
TAP	36	288	7
TAP	37	0	0
TAP	37	0	5
TAP	37	96	2
TAP	37	96	7
TAP	37	192	4
TAP	37	192	5
STR	37	288	6
SI_	37	288	6	96	48	3
STR	37	288	7
SI_	37	288	7	96	48	3
STR	38	96	0
SI_	38	96	0	96	48	3
STR	38	96	7
SI_	38	96	7	96	48	4
STR	38	288	0
SI_	38	288	0	96	48	4
STR	38	288	1
SI_	38	288	1	96	48	4
TAP	39	96	0
TAP	39	96	7
TAP	39	192	1
TAP	39	192	6
BRK	39	288	3
BRK	39	288	4
TAP	40	0	4
TAP	40	0	5
TAP	40	48	3
TAP	40	48	6
TAP	40	96	2
TAP	40	96	7
TAP	40	192	2
TAP	40	192	3
TAP	40	240	1
TAP	40	240	4
TAP	40	288	0
TAP	40	288	5
STR	41	0	7
SI_	41	0	7	96	48	3
TAP	41	48	7
STR	41	96	1
SI_	41	96	1	96	48	5
TAP	41	144	1
TAP	41	192	4
XST	41	288	4
SI_	41	288	4	96	48	0
XST	41	288	5
SI_	41	288	5	96	48	7
STR	42	96	2
SI_	42	96	2	96	48	0
STR	42	96	3
SI_	42	96	3	96	48	7
STR	42	288	4
SI_	42	288	4	96	48	0
STR	42	288	5
SI_	42	288	5	96	48	7
STR	43	96	2
SI_	43	96	2	96	48	0
STR	43	96	3
SI_	43	96	3	96	48	7
XTP	43	288	4
XTP	43	288	5
TAP	44	0	6
TAP	44	48	6
TAP	44	96	4
TAP	44	144	4
TAP	44	192	5
TAP	44	240	5
TAP	44	288	2
TAP	44	336	1
TAP	45	0	0
TAP	45	0	4
TAP	45	96	2
TAP	45	96	7
TAP	45	192	0
TAP	45	192	5
BST	45	288	1
SCR	45	288	1	96	96	4
BST	45	288	4
SCR	45	288	4	96	96	7
XTP	46	192	4
XTP	46	192	7
STR	46	288	3
SCL	46	288	3	96	96	0
STR	46	288	6
SCL	46	288	6	96	96	3
XTP	47	192	0
XTP	47	192	3
XTP	47	288	1
XTP	47	288	4
HLD	48	0	5	72
HLD	48	72	6	72
TAP	48	144	7
HLD	48	192	2	72
HLD	48	264	1	72
TAP	48	336	0
BST	49	0	0
SF_	49	0	0	96	96	4
XST	49	288	6
SI_	49	288	6	96	48	4
XST	49	288	7
SI_	49	288	7	96	48	3
XST	50	96	3
SI_	50	96	3	96	48	1
XST	50	96	4
SI_	50	96	4	96	48	0
XST	50	288	0
SI_	50	288	0	96	48	5
XST	50	288	1
SI_	50	288	1	96	48	4
XTP	51	96	4
XTP	51	96	5
TAP	51	192	2
TAP	51	192	3
XST	51	288	1
SI_	51	288	1	96	48	3
XST	51	288	4
SI_	51	288	4	96	48	0
XST	52	96	3
SI_	52	96	3	96	48	7
XST	52	96	6
SI_	52	96	6	96	48	4
XTP	52	288	0
XTP	52	288	5
XTP	53	0	2
XTP	53	0	7
TAP	53	96	0
TAP	53	96	5
TAP	53	192	3
TAP	53	192	4
XST	53	288	0
SI_	53	288	0	96	48	4
XST	53	288	1
SI_	53	288	1	96	48	3
XST	54	96	3
SI_	54	96	3	96	48	7
XST	54	96	4
SI_	54	96	4	96	48	6
XST	54	288	6
SI_	54	288	6	96	48	3
XST	54	288	7
SI_	54	288	7	96	48	2
XTP	55	96	2
XTP	55	96	3
TAP	55	192	4
TAP	55	192	5
XST	55	288	3
SI_	55	288	3	96	48	7
XST	55	288	6
SI_	55	288	6	96	48	4
XST	56	96	1
SI_	56	96	1	96	48	3
XST	56	96	4
SI_	56	96	4	96	48	0
XTP	56	288	2
XTP	56	288	7
STR	57	0	1
SI_	57	0	1	96	48	4
STR	57	0	6
SI_	57	0	6	96	48	3
BRK	57	192	0
BRK	57	192	7
STR	57	288	1
SI_	57	288	1	96	48	3
STR	57	288	5
SI_	57	288	5	96	48	0
STR	58	96	2
SI_	58	96	2	96	48	7
STR	58	96	6
SI_	58	96	6	96	48	4
STR	58	288	1
SI_	58	288	1	96	48	4
STR	58	288	5
SI_	58	288	5	96	48	7
STR	59	96	2
SI_	59	96	2	96	48	0
STR	59	96	6
SI_	59	96	6	96	48	3
XTP	59	288	0
XST	59	288	3
SCR	59	288	3	96	96	6
STR	60	96	7
SCR	60	96	7	96	96	2
TAP	60	288	3
TAP	61	0	1
TAP	61	0	3
TAP	61	96	0
TAP	61	96	7
TAP	61	192	4
TAP	61	192	6
STR	61	288	0
SCR	61	288	0	96	96	3
STR	61	288	5
SCR	61	288	5	96	96	0
XTP	62	192	0
XTP	62	192	3
STR	62	288	2
SCL	62	288	2	96	96	7
STR	62	288	7
SCL	62	288	7	96	96	4
XTP	63	192	4
XTP	63	192	7
STR	63	288	0
SXL	63	288	0	96	192	4
SXR	63	288	0	96	192	4
TAP	63	288	5
BRK	64	288	2
BRK	64	288	5
XTP	65	0	3
XTP	65	24	3
XTP	65	72	2
XTP	65	72	4
XTP	65	120	1
XTP	65	120	5
XTP	65	192	4
XTP	65	216	4
XTP	65	264	3
XTP	65	264	5
XTP	65	312	2
XTP	65	312	6
BRK	65	360	1
BST	65	360	7
SCL	65	360	7	96	312	0

T_REC_TAP	157
T_REC_BRK	14
T_REC_XTP	62
T_REC_HLD	49
T_REC_XHO	3
T_REC_STR	59
T_REC_BST	4
T_REC_XST	23
T_REC_TTP	5
T_REC_THO	0
T_REC_SLD	87
T_REC_ALL	463
T_NUM_TAP	306
T_NUM_BRK	18
T_NUM_HLD	52
T_NUM_SLD	87
T_NUM_ALL	463
T_JUDGE_TAP	324
T_JUDGE_HLD	94
T_JUDGE_SLD	87
T_JUDGE_ALL	505
TTM_EACHPAIRS	130
TTM_SCR_TAP	153000
TTM_SCR_BRK	46800
TTM_SCR_HLD	52000
TTM_SCR_SLD	130500
TTM_SCR_ALL	382300
TTM_SCR_S	369100
TTM_SCR_SS	380500
TTM_RAT_ACV	10047

