VERSION	0.00.00	1.03.00
FES_MODE	0
BPM_DEF	126.000	126.000	126.000	126.000
MET_DEF	4	4
RESOLUTION	384
CLK_DEF	384
COMPATIBLE_CODE	MA2

BPM	0	0	126.000
MET	0	0	4	4

TAP	1	0	3
TAP	1	0	4
TAP	1	96	3
TAP	1	96	4
TAP	1	192	3
TAP	1	192	4
TAP	2	0	5
TAP	2	96	5
TAP	2	192	4
TAP	2	288	4
TAP	3	0	3
TAP	3	96	3
TAP	3	192	2
TAP	3	192	4
TAP	4	0	1
TAP	4	96	1
TAP	4	192	0
TAP	4	288	0
TAP	5	0	7
TAP	5	96	7
TAP	5	192	0
TAP	5	192	7
TAP	6	0	6
TAP	6	96	6
TAP	6	192	7
TAP	6	288	7
TAP	7	0	0
TAP	7	96	0
TAP	7	192	1
TAP	7	192	7
TAP	8	0	2
TAP	8	96	2
TAP	8	192	3
TAP	8	288	3
XTP	9	0	3
XTP	9	0	4
XTP	9	96	3
XTP	9	96	4
XTP	9	192	2
XTP	9	192	5
TAP	10	0	6
TAP	10	96	6
TAP	10	192	6
TAP	10	192	7
TAP	11	0	1
TAP	11	96	1
TAP	11	192	0
TAP	11	192	1
TAP	12	0	6
TAP	12	96	6
TAP	12	192	7
TAP	12	288	7
STR	13	0	0
SI_	13	0	0	96	144	4
TAP	14	0	5
TAP	14	96	5
TAP	14	192	4
TAP	14	192	5
TAP	15	0	2
TAP	15	96	2
TAP	15	192	2
TAP	15	192	3
TAP	16	0	5
TAP	16	96	5
TAP	16	192	4
TAP	16	288	4
STR	17	0	3
SCL	17	0	3	96	144	0
TAP	17	0	4
HLD	18	0	6	192
TAP	18	192	7
TAP	19	0	1
TAP	19	96	1
TAP	19	192	0
TAP	19	192	1
HLD	20	0	1	192
TAP	20	192	0
TAP	21	0	6
TAP	21	96	6
TAP	21	192	6
TAP	21	192	7
HLD	22	0	5	192
TAP	22	192	4
TAP	23	0	2
TAP	23	96	2
TAP	23	192	2
TAP	23	192	3
TAP	24	0	5
TAP	24	96	4
TAP	24	192	3
TAP	24	288	2
XTP	25	0	1
XTP	25	96	0
XTP	25	192	7
XTP	25	288	6
STR	26	0	5
SI_	26	0	5	96	144	0
XST	27	0	1
SI_	27	0	1	96	144	5
STR	28	0	6
SI_	28	0	6	96	144	2
TAP	29	0	1
TAP	29	96	1
TAP	29	192	0
TAP	29	192	1
XHO	30	0	2	192
HLD	30	192	3	192
HLD	31	0	4	192
TAP	31	192	5
TAP	32	0	6
HLD	32	192	7	96
TAP	32	288	0
XST	32	336	0
SUR	32	336	0	96	192	7
TAP	34	0	6
TAP	34	96	6
TAP	34	192	6
TAP	34	192	7
TAP	34	288	6
TAP	34	288	7
TAP	35	0	1
TAP	35	96	1
TAP	35	192	0
TAP	35	192	1
TAP	35	288	0
TAP	35	288	1
TAP	36	0	2
TAP	36	96	2
TAP	36	192	2
TAP	36	192	3
TAP	36	288	2
TAP	36	288	3
TAP	37	0	5
TAP	37	96	4
TAP	37	96	5
BRK	37	192	3
BRK	37	192	6
TAP	38	0	2
TAP	38	96	2
TAP	38	192	2
TAP	38	192	3
TAP	38	288	2
TAP	38	288	3
TAP	39	0	1
TAP	39	96	0
TAP	39	192	0
TAP	39	192	7
TTP	40	0	6	B	0	L1
TTP	40	0	7	B	0	L1
TTP	40	192	0	B	0	L1
TTP	40	192	1	B	0	L1
TTP	41	0	3	E	0	L1
TTP	41	96	4	E	0	L1
TTP	41	192	5	E	0	L1
TAP	42	0	6
TAP	42	96	6
TAP	42	192	6
TAP	42	192	7
TAP	42	288	6
TAP	42	288	7
TAP	43	0	1
TAP	43	96	1
TAP	43	192	0
TAP	43	192	1
TAP	43	288	0
TAP	43	288	1
TAP	44	0	2
TAP	44	96	2
TAP	44	192	2
TAP	44	192	3
TAP	44	288	2
TAP	44	288	3
TAP	45	0	5
TAP	45	96	4
TAP	45	96	5
BRK	45	192	3
BRK	45	192	6
HLD	46	0	2	96
TAP	46	96	3
TAP	46	192	1
TAP	46	192	4
HLD	47	0	5	96
TAP	47	96	4
TAP	47	192	3
TAP	47	192	6
TAP	48	0	2
TAP	48	96	1
TAP	48	96	3
TAP	48	192	5
TAP	48	288	4
TAP	48	288	6
BST	49	0	7
SI_	49	0	7	96	144	2
SI_	49	0	7	96	144	4
TAP	50	0	3
TAP	50	96	3
TAP	50	192	2
TAP	50	288	2
TAP	51	0	1
TAP	51	96	1
TAP	51	192	0
TAP	51	192	7
TAP	52	0	6
TAP	52	96	6
TAP	52	192	5
TAP	52	288	5
TAP	53	0	4
TAP	53	96	4
BRK	53	192	3
BRK	53	192	5
TAP	54	0	2
TAP	54	96	2
TAP	54	96	3
TAP	54	192	2
TAP	54	288	2
TAP	54	288	3
TAP	55	0	5
TAP	55	96	4
TAP	55	96	5
TAP	55	192	5
TAP	55	288	4
TAP	55	288	5
TAP	56	0	6
TAP	56	96	6
TAP	56	96	7
TAP	56	192	6
TAP	56	288	6
TAP	56	288	7
TAP	57	0	1
TAP	57	96	0
TAP	57	96	1
BRK	57	192	2
BRK	57	192	7
TAP	58	0	6
TAP	58	96	6
TAP	58	96	7
TAP	58	192	6
TAP	58	288	6
TAP	58	288	7
TAP	59	0	1
TAP	59	96	0
TAP	59	96	1
TAP	59	192	1
TAP	59	288	0
TAP	59	288	1
TAP	60	0	2
TAP	60	96	2
TAP	60	96	3
TAP	60	192	2
TAP	60	288	2
TAP	60	288	3
TAP	61	0	5
TAP	61	96	4
TAP	61	96	5
BRK	61	192	3
BRK	61	192	6
HLD	62	0	2	96
TAP	62	96	3
TAP	62	192	1
TAP	62	192	4
HLD	63	0	5	96
TAP	63	96	4
TAP	63	192	3
TAP	63	192	6
TAP	64	0	7
TAP	64	96	7
TAP	64	192	0
TAP	64	192	7
XTP	65	24	1
XTP	65	24	6
XHO	65	216	5	144
XST	65	360	4
SSL	65	360	4	96	312	0

T_REC_TAP	215
T_REC_BRK	10
T_REC_XTP	12
T_REC_HLD	10
T_REC_XHO	2
T_REC_STR	4
T_REC_BST	1
T_REC_XST	3
T_REC_TTP	7
T_REC_THO	0
T_REC_SLD	9
T_REC_ALL	273
T_NUM_TAP	241
T_NUM_BRK	11
T_NUM_HLD	12
T_NUM_SLD	9
T_NUM_ALL	273
T_JUDGE_TAP	252
T_JUDGE_HLD	37
T_JUDGE_SLD	9
T_JUDGE_ALL	298
TTM_EACHPAIRS	63
TTM_SCR_TAP	120500
TTM_SCR_BRK	28600
TTM_SCR_HLD	12000
TTM_SCR_SLD	13500
TTM_SCR_ALL	174600
TTM_SCR_S	168300
TTM_SCR_SS	173500
TTM_RAT_ACV	10063

