VERSION	0.00.00	1.03.00
FES_MODE	0
BPM_DEF	126.000	126.000	126.000	126.000
MET_DEF	4	4
RESOLUTION	384
CLK_DEF	384
COMPATIBLE_CODE	MA2

BPM	0	0	126.000
MET	0	0	4	4

XTP	2	0	0
TAP	3	0	0
TAP	4	0	0
TAP	6	0	7
TAP	7	0	7
TAP	8	0	7
TAP	10	96	0
TAP	10	288	0
TAP	11	96	1
TAP	11	288	1
TAP	12	96	2
TAP	12	288	2
TAP	13	96	3
TAP	13	288	3
TAP	14	96	4
TAP	14	288	4
TAP	15	96	5
TAP	15	288	5
TAP	16	96	6
TAP	16	288	6
XTP	17	96	0
XTP	17	96	7
XTP	17	288	0
XTP	17	288	7
TAP	18	96	7
TAP	18	288	7
TAP	19	96	6
TAP	19	288	6
TAP	20	96	5
TAP	20	288	5
TAP	21	96	3
TAP	21	96	4
TAP	21	288	3
TAP	21	288	4
TAP	22	96	3
TAP	22	288	2
TAP	23	96	1
TAP	23	288	0
TAP	24	96	7
TAP	24	288	0
XTP	25	96	0
XTP	25	96	7
XTP	25	192	0
XTP	25	192	7
TTP	26	0	0	B	0	L1
TTP	26	0	7	B	0	L1
TTP	27	0	1	B	0	L1
TTP	27	0	6	B	0	L1
TTP	28	0	2	B	0	L1
TTP	28	0	5	B	0	L1
TTP	29	0	3	B	0	L1
TTP	29	0	4	B	0	L1
TTP	30	0	1	B	0	L1
TTP	30	0	2	B	0	L1
TTP	31	0	0	B	0	L1
TTP	31	0	7	B	0	L1
THO	32	0	0	336	C	0	L1
BRK	34	0	0
TAP	34	192	0
TAP	35	0	1
TAP	35	96	1
TAP	35	192	1
TAP	36	0	2
TAP	36	192	2
TAP	37	0	3
TAP	37	96	3
TAP	37	192	3
TAP	37	192	4
TAP	38	0	4
TAP	38	192	4
TAP	39	0	5
TAP	39	96	5
TAP	39	192	5
TAP	40	0	6
TAP	40	192	6
TAP	41	0	7
TAP	41	96	7
TAP	41	192	0
TAP	41	192	7
TAP	42	0	6
TAP	42	192	6
TAP	43	0	5
TAP	43	96	5
TAP	43	192	5
TAP	44	0	4
TAP	44	192	4
TAP	45	0	3
TAP	45	96	3
TAP	45	192	3
TAP	45	192	4
TAP	46	0	2
TAP	46	192	2
TAP	47	0	1
TAP	47	96	1
TAP	47	192	1
TAP	48	0	0
TAP	48	192	0
TAP	49	0	7
TAP	49	96	7
TAP	49	192	0
TAP	49	192	7
STR	50	0	0
SI_	50	0	0	96	288	3
TAP	51	192	4
STR	52	0	4
SI_	52	0	4	96	288	7
TAP	53	192	0
STR	54	0	1
SI_	54	0	1	96	288	4
TAP	55	192	5
STR	56	0	6
SI_	56	0	6	96	288	2
TAP	57	192	1
TAP	58	0	0
TAP	58	96	0
TAP	58	192	0
TAP	59	0	0
TAP	59	0	1
TAP	59	192	0
TAP	59	192	1
TAP	60	0	2
TAP	60	96	2
TAP	60	192	2
TAP	61	0	2
TAP	61	0	3
TAP	61	192	2
TAP	61	192	3
TAP	62	0	4
TAP	62	96	4
TAP	62	192	4
TAP	63	0	4
TAP	63	0	5
TAP	63	192	4
TAP	63	192	5
TAP	64	0	6
TAP	64	96	6
TAP	64	192	6
STR	65	0	0
SI_	65	0	0	96	288	3
STR	65	0	7
SI_	65	0	7	96	288	4

T_REC_TAP	106
T_REC_BRK	1
T_REC_XTP	9
T_REC_HLD	0
T_REC_XHO	0
T_REC_STR	6
T_REC_BST	0
T_REC_XST	0
T_REC_TTP	12
T_REC_THO	1
T_REC_SLD	6
T_REC_ALL	141
T_NUM_TAP	133
T_NUM_BRK	1
T_NUM_HLD	1
T_NUM_SLD	6
T_NUM_ALL	141
T_JUDGE_TAP	134
T_JUDGE_HLD	7
T_JUDGE_SLD	6
T_JUDGE_ALL	147
TTM_EACHPAIRS	17
TTM_SCR_TAP	66500
TTM_SCR_BRK	2600
TTM_SCR_HLD	1000
TTM_SCR_SLD	9000
TTM_SCR_ALL	79100
TTM_SCR_S	76650
TTM_SCR_SS	79000
TTM_RAT_ACV	10012

