VERSION	0.00.00	1.03.00
FES_MODE	0
BPM_DEF	190.000	190.000	190.000	190.000
MET_DEF	4	4
RESOLUTION	384
CLK_DEF	384
COMPATIBLE_CODE	MA2

BPM	0	0	190.000
MET	0	0	4	4

STR	2	288	1
SI_	2	288	1	96	48	4
STR	2	288	6
SI_	2	288	6	96	48	3
XTP	3	0	1
XTP	3	0	6
TAP	3	288	3
TAP	3	312	4
HLD	3	336	3	288
TAP	4	240	4
STR	4	288	5
SCR	4	288	5	96	96	1
STR	5	0	1
SCL	5	0	1	96	96	5
TAP	5	96	2
TAP	5	192	3
STR	5	240	3
SI_	5	240	3	96	48	0
XTP	6	48	7
TAP	6	144	4
TAP	6	144	6
TAP	6	192	4
TAP	6	192	6
TAP	6	264	3
TAP	6	264	5
TAP	6	336	2
TAP	6	336	4
HLD	7	0	2	96
TAP	7	0	4
TAP	7	96	3
TAP	7	144	3
TAP	7	192	4
TAP	7	240	4
TAP	7	288	3
TAP	7	288	5
STR	8	0	2
SI_	8	0	2	96	48	5
STR	8	0	6
SI_	8	0	6	96	48	1
BRK	8	192	7
HLD	9	0	2	96
TAP	9	96	4
TAP	9	192	5
TAP	9	288	3
HLD	9	336	3	96
TAP	10	48	4
STR	10	96	1
SCR	10	96	1	96	48	3
STR	10	96	6
SCL	10	96	6	96	48	4
TTP	10	288	0	B	0	M1
TTP	10	288	0	E	0	M1
TTP	10	288	7	B	0	M1
TAP	11	0	2
TAP	11	0	4
TAP	11	48	3
STR	11	48	5
SI_	11	48	5	96	48	0
TAP	11	144	4
TAP	11	240	2
TAP	11	288	2
TAP	11	336	3
TAP	12	0	1
TAP	12	48	5
TAP	12	96	4
TAP	12	144	6
TAP	12	192	0
TAP	12	240	0
TAP	12	288	1
TAP	12	288	7
TAP	13	0	3
TAP	13	0	5
STR	13	48	2
SI_	13	48	2	96	48	7
TAP	13	48	4
TAP	13	144	3
TAP	13	240	5
TAP	13	288	5
TAP	13	336	4
TAP	14	0	6
TAP	14	48	2
TAP	14	96	3
TAP	14	144	1
TAP	14	192	7
TAP	14	240	7
TAP	14	288	0
TAP	14	288	6
HLD	15	0	2	96
TAP	15	96	4
TAP	15	144	4
TAP	15	192	3
TAP	15	192	5
TAP	15	240	3
TAP	15	240	5
TAP	15	288	2
TAP	15	288	6
STR	16	0	1
SI_	16	0	1	96	48	4
STR	16	96	5
SI_	16	96	5	96	48	0
HLD	16	192	2	96
BRK	16	288	7
TAP	17	0	3
TAP	17	0	6
TAP	17	48	3
TAP	17	48	6
TAP	17	96	2
HLD	17	144	1	96
TAP	17	144	5
STR	17	240	7
SI_	17	240	7	96	48	3
TAP	17	336	0
XTP	17	336	7
TAP	18	48	2
TAP	18	96	3
TAP	18	144	4
TAP	18	192	5
STR	18	288	3
SCL	18	288	3	96	384	4
TTP	19	0	0	C	1	M1
STR	21	0	5
SCL	21	0	5	96	288	2
TAP	23	0	4
TAP	23	96	4
TAP	23	192	4
TAP	23	288	4
TAP	24	0	4
TAP	24	96	4
TAP	24	192	4
TAP	24	240	3
TAP	24	288	3
TAP	24	288	4
TAP	25	0	4
TAP	25	96	5
TAP	25	144	5
STR	25	240	2
SV_	25	240	2	96	48	0
STR	25	240	6
SV_	25	240	6	96	48	4
TAP	26	144	2
TAP	26	192	3
TAP	26	240	4
TAP	26	288	3
TAP	26	288	5
STR	27	0	6
SCL	27	0	6	96	48	3
TAP	27	96	2
STR	27	192	1
SCR	27	192	1	96	48	4
TAP	27	288	4
STR	28	0	5
SCR	28	0	5	96	48	0
TAP	28	96	3
STR	28	192	2
SCL	28	192	2	96	48	7
TAP	28	288	5
STR	29	0	6
SI_	29	0	6	96	48	2
TAP	29	96	2
TAP	29	144	1
STR	29	192	1
SI_	29	192	1	96	48	5
TAP	29	288	6
HLD	29	336	6	96
TAP	30	48	4
TAP	30	96	4
TAP	30	192	1
TAP	30	240	1
STR	30	288	3
SI_	30	288	3	96	48	7
STR	31	0	0
SI_	31	0	0	96	48	4
TAP	31	96	5
TAP	31	144	5
TAP	31	288	7
TAP	31	336	7
TAP	32	48	4
TAP	32	48	6
TAP	32	144	1
TAP	32	144	3
TAP	32	240	5
TAP	32	288	4
TAP	32	288	6
TAP	33	0	3
STR	33	0	7
SCL	33	0	7	96	48	4
TAP	33	96	1
HLD	33	144	1	96
TAP	33	240	4
TAP	33	336	2
TAP	33	336	5
TAP	34	48	4
TAP	34	96	4
TAP	34	144	3
TAP	34	144	4
TAP	34	192	2
TAP	34	224	3
TAP	34	256	1
TAP	34	288	5
TAP	34	320	4
TAP	34	352	6
THO	35	0	0	192	C	0	M1
TTP	35	0	2	B	0	M1
TTP	35	0	3	B	0	M1
TTP	35	192	4	B	0	M1
TTP	35	192	5	B	0	M1
TAP	36	0	0
TAP	36	0	1
STR	36	96	1
SI_	36	96	1	96	96	5
STR	36	96	2
SI_	36	96	2	96	96	4
THO	37	0	0	192	C	0	M1
TTP	37	0	4	B	0	M1
TTP	37	0	5	B	0	M1
TTP	37	192	2	B	0	M1
TTP	37	192	3	B	0	M1
TAP	38	0	6
TAP	38	0	7
STR	38	96	5
SCL	38	96	5	96	96	2
STR	38	96	6
SCR	38	96	6	96	96	1
HLD	39	0	0	288
TAP	39	96	2
TAP	39	192	2
HLD	39	288	7	384
TAP	40	0	5
TAP	40	96	5
TAP	40	192	5
TAP	40	288	0
TAP	41	0	1
TAP	41	0	6
TAP	41	48	1
TAP	41	48	6
TAP	41	144	3
TAP	41	144	5
TAP	41	192	3
TAP	41	192	5
HLD	41	288	2	96
TAP	41	288	4
TTP	42	0	4	E	0	M1
TTP	42	24	5	E	0	M1
TTP	42	48	6	E	0	M1
TTP	42	72	7	E	0	M1
STR	43	0	0
SCR	43	0	0	96	48	3
STR	43	0	6
SCL	43	0	6	96	48	3
TAP	43	96	0
TAP	43	96	6
TAP	43	192	2
TAP	43	192	4
TAP	43	240	2
STR	43	240	4
SCR	43	240	4	96	96	0
STR	43	336	0
SCR	43	336	0	96	96	4
TAP	44	48	4
TAP	44	144	0
TAP	44	192	0
TAP	44	288	2
TAP	44	288	6
STR	45	0	4
SI_	45	0	4	96	48	1
STR	45	0	5
SI_	45	0	5	96	48	0
TAP	45	96	4
TAP	45	96	5
TAP	45	192	2
TAP	45	192	7
TAP	45	240	2
STR	45	240	7
SI_	45	240	7	96	48	4
STR	45	336	3
SI_	45	336	3	96	48	0
TAP	45	336	7
TAP	46	48	3
XTP	46	48	4
TAP	46	144	5
HLD	46	192	5	72
HLD	46	264	6	72
TAP	46	336	7
STR	47	0	7
SI_	47	0	7	96	48	4
TAP	47	96	4
TAP	47	144	3
HLD	47	192	3	72
HLD	47	264	2	72
TAP	47	336	1
STR	48	0	1
SI_	48	0	1	96	48	5
TAP	48	96	5
TAP	48	144	6
HLD	48	192	6	96
BRK	48	288	0
TAP	49	0	1
TAP	49	0	5
STR	49	96	2
SCL	49	96	2	96	48	7
STR	49	96	6
SCL	49	96	6	96	48	3
TAP	49	192	2
TAP	49	192	6
XTP	49	288	0
XTP	49	288	4
XTP	49	336	0
XTP	49	336	4
TAP	50	48	2
TAP	50	72	3
TAP	50	96	2
TAP	50	144	0
STR	50	192	1
SCR	50	192	1	96	48	4
STR	50	192	7
SCL	50	192	7	96	48	4
XTP	50	288	1
XTP	50	288	7
STR	51	0	2
SI_	51	0	2	96	48	5
STR	51	0	6
SI_	51	0	6	96	48	1
TAP	51	96	2
TAP	51	96	6
TAP	51	192	3
TAP	51	192	7
TAP	51	240	3
STR	51	240	7
SI_	51	240	7	96	48	2
STR	51	336	4
SI_	51	336	4	96	48	0
TAP	52	48	5
TAP	52	144	6
TAP	52	192	6
STR	52	288	2
SCL	52	288	2	96	96	6
STR	53	0	6
SCR	53	0	6	96	96	2
TAP	53	96	5
TAP	53	192	4
STR	53	240	4
SI_	53	240	4	96	48	7
STR	53	336	3
SI_	53	336	3	96	48	0
TAP	54	48	4
TAP	54	144	6
HLD	54	192	6	72
HLD	54	264	5	72
TAP	54	336	4
STR	55	0	4
SI_	55	0	4	96	48	0
TAP	55	96	0
TAP	55	144	1
HLD	55	192	1	72
HLD	55	264	2	72
TAP	55	336	3
XTP	56	0	3
XTP	56	0	4
BRK	56	192	7
TAP	57	0	2
TAP	57	0	4
STR	57	96	1
SI_	57	96	1	96	48	5
STR	57	96	3
SI_	57	96	3	96	48	7
TAP	57	192	1
TAP	57	192	3
TAP	57	288	0
HLD	57	336	0	96
TAP	58	48	1
TAP	58	144	2
TAP	58	144	3
TAP	58	240	4
TAP	58	240	5
TAP	58	288	3
HLD	58	288	6	96
TAP	59	0	4
STR	59	96	3
SI_	59	96	3	96	48	0
STR	59	96	7
SI_	59	96	7	96	48	4
TAP	59	192	3
TAP	59	192	7
XTP	59	288	0
XHO	59	336	0	96
STR	60	48	3
SXL	60	48	3	96	240	7
TAP	60	144	2
TAP	60	240	0
STR	60	288	0
SI_	60	288	0	96	48	4
XTP	61	0	0
TAP	61	96	3
TAP	61	96	6
STR	61	192	2
SI_	61	192	2	96	48	7
STR	61	288	4
SI_	61	288	4	96	48	1
STR	62	0	0
SI_	62	0	0	96	48	5
STR	62	96	6
SI_	62	96	6	96	48	3
TAP	62	192	2
TAP	62	240	2
TAP	62	288	1
STR	62	288	4
SCL	62	288	4	96	48	1
SCR	62	288	4	96	48	7
XTP	63	144	0
STR	63	192	0
SSL	63	192	0	96	144	4
TAP	63	288	5
STR	63	336	5
SCR	63	336	5	96	96	2
TAP	64	192	4
TAP	64	288	2
STR	64	288	6
SCL	64	288	6	96	48	3
STR	65	0	1
SCL	65	0	1	96	48	6
STR	65	96	4
SCL	65	96	4	96	48	1
XTP	65	192	7
XTP	65	288	1
XTP	65	336	1
STR	66	48	2
SXL	66	48	2	96	96	3
SLL	66	48	2	96	96	3
TAP	66	48	3
XTP	66	288	7
TAP	67	0	0
TAP	67	0	6
STR	67	96	5
SCL	67	96	5	96	48	2
STR	67	192	1
SCL	67	192	1	96	48	6
TAP	67	288	4
TAP	67	336	4
TAP	68	48	2
TAP	68	48	6
TAP	68	144	3
TAP	68	144	5
TAP	68	192	3
TAP	68	192	5
TAP	68	240	2
TAP	68	264	4
TAP	68	288	2
TAP	68	312	4
TAP	68	336	2
TAP	68	360	4
STR	69	0	2
SCR	69	0	2	96	48	5
XTP	69	192	0
XTP	69	192	7
TAP	69	288	4
TAP	69	336	4
TAP	70	0	3
TAP	70	0	5
TAP	70	48	3
TAP	70	48	5
STR	70	96	2
SI_	70	96	2	96	48	5
STR	70	96	6
SI_	70	96	6	96	48	1
STR	70	288	4
SCR	70	288	4	96	384	3
TAP	72	240	2
TAP	72	240	5
STR	72	288	3
SI_	72	288	3	96	48	0
STR	72	288	4
SI_	72	288	4	96	48	7
XTP	73	0	3
XTP	73	0	4
TAP	73	96	1
TAP	73	96	6
TAP	73	192	2
HLD	73	240	2	96
TAP	73	288	3
TAP	73	336	4
HLD	74	48	5	96
TAP	74	96	4
TAP	74	144	3
STR	74	192	2
SCR	74	192	2	96	48	5
TAP	74	288	5
TAP	75	0	6
HLD	75	48	6	96
TAP	75	96	7
TAP	75	144	0
HLD	75	240	1	96
TAP	75	288	0
TAP	75	336	7
HLD	76	48	6	96
TAP	76	96	7
TAP	76	144	0
TAP	76	192	1
TAP	76	192	5
TAP	76	288	2
TAP	76	288	4
TAP	77	0	5
HLD	77	48	5	96
TAP	77	96	4
TAP	77	144	3
HLD	77	240	2	96
TAP	77	288	3
TAP	77	336	4
HLD	78	48	5	96
TAP	78	96	4
TAP	78	144	3
TAP	78	192	2
XTP	78	288	1
XTP	78	288	4
TAP	79	0	3
TAP	79	0	5
TAP	79	48	6
TAP	79	96	7
TAP	79	144	0
TAP	79	144	6
TAP	79	192	1
TAP	79	240	2
TAP	79	288	3
TAP	79	288	4
TAP	79	336	5
STR	80	0	5
SI_	80	0	5	96	48	1
STR	80	96	2
SI_	80	96	2	96	48	6
STR	80	192	7
SI_	80	192	7	96	48	3
STR	80	288	0
SCR	80	288	0	96	96	5
TAP	81	0	6
STR	81	96	7
SXR	81	96	7	96	192	3
BRK	81	192	0
TAP	82	48	0
HLD	82	96	0	96
TAP	82	192	7
TAP	82	240	1
TAP	82	240	6
TAP	82	288	2
TAP	82	288	5
TAP	83	0	6
HLD	83	48	6	96
TAP	83	96	4
TAP	83	144	3
HLD	83	240	1	96
TAP	83	288	3
TAP	83	336	4
HLD	84	48	6	96
TAP	84	96	4
TAP	84	144	3
STR	84	192	1
SI_	84	192	1	96	48	5
TAP	84	288	5
TAP	85	0	4
TAP	85	0	6
TAP	85	48	7
STR	85	96	0
SCR	85	96	0	96	48	3
STR	85	96	7
SCL	85	96	7	96	48	4
TAP	85	192	0
TAP	85	192	7
TAP	85	288	2
TAP	85	288	5
TAP	85	336	1
TAP	85	336	6
TAP	86	48	3
TAP	86	72	4
TAP	86	96	3
TAP	86	144	1
TAP	86	192	0
TAP	86	192	7
TAP	86	240	0
TAP	86	240	7
TAP	86	288	1
STR	86	288	6
SI_	86	288	6	96	48	2
HLD	86	336	1	624
TAP	86	336	6
TAP	88	0	4
TAP	88	96	4
STR	88	192	7
SCL	88	192	7	96	288	0
BRK	88	288	0
BRK	88	336	0
TTP	90	0	3	E	0	M1
TTP	90	16	3	B	0	M1
TTP	90	32	4	B	0	M1
TTP	90	48	5	E	0	M1

T_REC_TAP	318
T_REC_BRK	7
T_REC_XTP	26
T_REC_HLD	36
T_REC_XHO	1
T_REC_STR	90
T_REC_BST	0
T_REC_XST	0
T_REC_TTP	20
T_REC_THO	2
T_REC_SLD	92
T_REC_ALL	592
T_NUM_TAP	454
T_NUM_BRK	7
T_NUM_HLD	39
T_NUM_SLD	92
T_NUM_ALL	592
T_JUDGE_TAP	461
T_JUDGE_HLD	107
T_JUDGE_SLD	92
T_JUDGE_ALL	660
TTM_EACHPAIRS	105
TTM_SCR_TAP	227000
TTM_SCR_BRK	18200
TTM_SCR_HLD	39000
TTM_SCR_SLD	138000
TTM_SCR_ALL	422200
TTM_SCR_S	408900
TTM_SCR_SS	421500
TTM_RAT_ACV	10016

