VERSION	0.00.00	1.03.00
FES_MODE	0
BPM_DEF	190.000	190.000	190.000	190.000
MET_DEF	4	4
RESOLUTION	384
CLK_DEF	384
COMPATIBLE_CODE	MA2

BPM	0	0	190.000
MET	0	0	4	4

TAP	3	0	2
STR	3	0	5
SCR	3	0	5	96	192	1
XHO	4	0	3	192
TAP	4	192	4
TAP	5	0	5
TAP	5	96	5
TAP	5	192	6
TAP	5	288	6
STR	6	0	0
SXL	6	0	0	96	192	0
TAP	6	0	7
TAP	7	0	5
TAP	7	96	4
TAP	7	192	3
TAP	7	288	2
TAP	8	0	1
TAP	8	48	1
TAP	8	96	7
TAP	8	192	0
STR	8	192	5
SCL	8	192	5	96	384	6
TTP	10	192	4	E	0	M1
HLD	11	0	0	96
BRK	11	0	7
TAP	11	96	2
HLD	11	144	2	96
TAP	11	240	4
HLD	11	288	4	96
TAP	12	0	6
HLD	12	48	6	96
TAP	12	144	0
HLD	12	192	0	96
TAP	12	288	7
XTP	13	0	1
XHO	13	0	6	96
TAP	13	96	4
HLD	13	144	4	96
TAP	13	240	3
HLD	13	288	3	96
TAP	14	0	1
HLD	14	48	1	96
TAP	14	144	7
HLD	14	192	7	96
TAP	14	288	0
TTP	15	0	5	B	0	M1
TTP	15	96	4	B	0	M1
TTP	15	192	3	B	0	M1
TTP	15	288	2	B	0	M1
TTP	16	0	1	B	0	M1
TTP	16	96	0	B	0	M1
TTP	16	192	7	B	0	M1
TTP	16	288	6	B	0	M1
XHO	17	0	0	144
TAP	17	144	7
TAP	17	240	0
TAP	17	240	7
BST	17	336	2
SLL	17	336	2	96	216	4
BST	17	336	5
SLR	17	336	5	96	216	3
STR	19	0	5
SCL	19	0	5	96	432	2
STR	21	0	5
SCL	21	0	5	96	432	2
HLD	23	0	5	768
TAP	23	96	4
TAP	23	288	4
TAP	24	96	3
TAP	24	288	2
HLD	25	0	2	480
TAP	25	96	3
TAP	25	288	3
TAP	26	96	4
TAP	26	192	2
TAP	26	192	4
TAP	27	0	5
TAP	27	48	5
TAP	27	96	4
TAP	27	192	3
TAP	27	192	5
TAP	27	288	2
TAP	27	336	2
TAP	28	0	3
TAP	28	96	2
TAP	28	96	4
TAP	28	192	1
TAP	28	192	5
TAP	29	0	6
TAP	29	48	6
TAP	29	96	7
TAP	29	192	0
TAP	29	192	6
TAP	29	288	1
TAP	29	336	1
TAP	30	0	0
TAP	30	96	1
TAP	30	96	7
TAP	30	192	2
TAP	30	192	6
TAP	31	0	6
TAP	31	48	6
TAP	31	96	4
TAP	31	192	3
TAP	31	192	5
TAP	31	288	1
TAP	31	336	1
STR	32	0	3
SUR	32	0	3	96	192	4
XTP	33	0	5
TAP	33	48	5
TAP	33	96	4
TAP	33	192	3
TAP	33	192	6
TAP	33	288	1
TAP	33	288	4
XHO	34	0	0	96
XHO	34	0	7	96
BRK	34	192	1
BRK	34	192	6
HLD	35	0	5	384
TTP	35	192	7	E	0	M1
HLD	36	0	4	384
TTP	36	192	7	B	0	M1
HLD	37	0	3	384
TTP	37	192	0	B	0	M1
HLD	38	0	2	384
TTP	38	192	1	E	0	M1
XTP	39	0	3
XTP	39	96	2
TAP	39	192	1
TAP	39	288	0
TAP	40	0	7
TAP	40	96	6
TAP	40	192	5
TAP	40	288	4
XTP	41	0	2
XTP	41	0	5
TAP	41	96	4
TAP	41	96	6
TAP	41	144	4
TAP	41	144	6
TAP	41	240	1
TAP	41	240	3
TAP	41	288	1
TAP	41	288	3
TAP	42	0	0
STR	42	0	4
SI_	42	0	4	96	72	7
BRK	43	0	1
BRK	43	0	5
TAP	43	96	0
TAP	43	192	6
TAP	43	192	7
STR	43	240	6
SI_	43	240	6	96	48	3
STR	43	240	7
SI_	43	240	7	96	48	3
TAP	44	144	1
TAP	44	144	4
TAP	44	192	1
TAP	44	192	4
TAP	44	288	2
TAP	45	0	3
TAP	45	0	6
TAP	45	96	7
TAP	45	192	0
TAP	45	192	1
STR	45	240	0
SI_	45	240	0	96	48	4
STR	45	240	1
SI_	45	240	1	96	48	4
TAP	46	144	6
HLD	46	192	6	96
XST	46	288	4
SI_	46	288	4	96	48	0
TAP	47	144	1
HLD	47	192	1	96
XST	47	288	3
SI_	47	288	3	96	48	7
TAP	48	144	0
TAP	48	144	6
TAP	48	192	0
TAP	48	192	6
TAP	48	288	1
TAP	48	288	5
TAP	49	0	2
TAP	49	0	4
TAP	49	96	3
TAP	49	96	5
TAP	49	192	0
TAP	49	192	7
TAP	49	240	0
TAP	49	240	7
TTP	49	336	0	C	1	M1
TTP	49	336	2	B	0	M1
TTP	49	336	5	B	0	M1
XTP	50	144	0
XHO	50	192	0	96
XTP	50	288	7
BRK	51	0	1
BRK	51	0	6
TAP	51	96	3
TAP	51	96	5
TAP	51	192	2
TAP	51	192	4
STR	51	288	1
SI_	51	288	1	96	48	4
STR	51	288	5
SI_	51	288	5	96	48	0
XTP	51	336	1
XTP	51	336	5
XTP	52	144	2
XTP	52	144	6
XTP	52	192	2
XTP	52	192	6
TAP	52	288	3
TAP	52	288	4
XTP	53	0	1
XTP	53	0	7
XTP	53	96	0
XTP	53	96	6
TAP	53	192	1
TAP	53	192	5
TAP	53	240	1
TAP	53	240	5
HLD	53	336	2	96
HLD	53	336	4	96
TAP	54	144	0
TAP	54	144	7
STR	54	192	0
SXL	54	192	0	96	144	0
STR	54	192	7
SXR	54	192	7	96	144	7
TAP	55	192	1
TAP	55	192	6
TAP	55	288	2
TAP	55	288	5
HLD	56	0	3	192
HLD	56	0	4	192
BRK	57	0	0
BRK	57	0	7
TAP	57	96	6
TAP	57	192	3
TAP	57	192	5
TAP	57	288	2
TAP	57	288	4
HLD	57	336	2	96
TAP	57	336	4
HLD	58	48	1	96
HLD	58	144	0	96
TAP	58	240	7
TAP	58	288	7
TAP	59	0	0
TAP	59	0	7
TAP	59	96	1
TAP	59	192	2
TAP	59	192	4
TAP	59	288	3
TAP	59	288	5
TAP	59	336	3
HLD	59	336	5	96
HLD	60	48	6	96
HLD	60	144	7	96
TAP	60	240	0
TAP	60	288	0
TTP	61	0	0	C	1	M1
TTP	61	0	2	B	0	M1
TTP	61	0	5	B	0	M1
TTP	61	192	7	E	0	M1
TTP	61	288	6	E	0	M1
TTP	62	0	5	E	0	M1
TTP	62	96	4	E	0	M1
TTP	62	192	3	E	0	M1
TTP	62	288	2	E	0	M1
XTP	63	0	0
XTP	63	0	7
TAP	63	96	6
TAP	63	144	6
TAP	63	192	7
TAP	63	288	0
TAP	63	288	6
TAP	64	0	1
TAP	64	48	1
TAP	64	96	0
TAP	64	192	1
TAP	64	192	7
TAP	64	288	2
TAP	64	288	6
BRK	65	0	3
BRK	65	0	4
TAP	65	96	5
TAP	65	192	0
TAP	65	192	6
TAP	65	288	1
TAP	65	288	7
HLD	65	336	1	96
TAP	65	336	7
HLD	66	48	2	96
HLD	66	144	3	96
TAP	66	240	4
TAP	66	288	4
TAP	67	0	3
TAP	67	0	4
TAP	67	96	2
TAP	67	192	1
TAP	67	192	7
TAP	67	288	0
TAP	67	288	6
TAP	67	336	0
HLD	67	336	6	96
HLD	68	48	5	96
HLD	68	144	4	96
TAP	68	240	3
STR	68	288	3
SUR	68	288	3	96	192	4
XTP	70	0	0
XTP	70	0	7
XTP	70	48	0
XTP	70	48	7
XTP	70	96	0
XTP	70	96	7
XHO	70	144	0	624
XHO	70	144	7	624
STR	72	288	2
SCL	72	288	2	96	288	5
TTP	73	0	0	C	1	M1
TAP	74	192	3
TAP	74	192	4
TAP	74	288	2
TAP	74	288	5
TAP	75	0	1
TAP	75	48	1
TAP	75	96	0
TAP	75	192	2
TAP	75	192	7
TAP	75	288	6
TAP	75	336	6
TAP	76	0	7
TAP	76	96	0
TAP	76	96	5
TAP	76	192	4
TAP	76	288	3
TAP	76	288	5
TAP	77	0	2
TAP	77	48	2
TAP	77	96	3
TAP	77	192	1
TAP	77	192	4
TAP	77	288	5
TAP	77	336	5
TAP	78	0	4
TAP	78	96	3
TAP	78	96	6
TAP	78	192	7
TAP	78	288	0
TAP	78	288	6
TAP	79	0	1
TAP	79	48	1
TAP	79	96	0
TAP	79	192	2
TAP	79	192	7
TAP	79	288	6
TAP	79	336	6
TAP	80	0	7
TAP	80	96	0
TAP	80	96	5
TAP	80	192	1
TAP	80	192	4
TAP	80	288	2
TAP	80	288	3
BRK	81	0	1
TAP	81	48	1
TAP	81	96	3
TAP	81	192	2
TAP	81	192	4
TAP	81	288	6
TAP	81	336	6
TAP	82	0	4
TAP	82	96	3
TAP	82	96	5
TAP	82	192	2
TAP	82	192	4
TAP	82	288	1
TAP	82	288	6
TAP	83	0	5
TAP	83	48	5
TAP	83	96	7
TAP	83	192	0
TAP	83	192	6
TAP	83	288	2
TAP	83	336	2
TAP	84	0	0
TAP	84	96	1
TAP	84	96	7
TAP	84	192	0
TAP	84	192	6
TAP	84	288	2
TAP	84	288	5
TAP	85	0	1
TAP	85	48	1
TAP	85	96	3
TAP	85	192	2
TAP	85	192	4
TAP	85	288	6
TAP	85	336	6
TAP	86	0	4
TAP	86	96	3
TAP	86	96	5
XTP	86	192	2
XTP	86	192	6
XTP	86	240	2
XTP	86	240	6
XTP	86	288	2
XTP	86	288	6
XST	86	336	2
SCL	86	336	2	96	384	3
XTP	86	336	6
XTP	88	288	0
XTP	88	288	5
XHO	88	336	0	480
XTP	88	336	5
TTP	90	0	6	B	0	M1
TTP	90	24	0	C	0	M1
TTP	90	48	2	B	0	M1

T_REC_TAP	262
T_REC_BRK	12
T_REC_XTP	36
T_REC_HLD	33
T_REC_XHO	9
T_REC_STR	17
T_REC_BST	2
T_REC_XST	3
T_REC_TTP	29
T_REC_THO	0
T_REC_SLD	22
T_REC_ALL	425
T_NUM_TAP	347
T_NUM_BRK	14
T_NUM_HLD	42
T_NUM_SLD	22
T_NUM_ALL	425
T_JUDGE_TAP	361
T_JUDGE_HLD	167
T_JUDGE_SLD	22
T_JUDGE_ALL	550
TTM_EACHPAIRS	110
TTM_SCR_TAP	173500
TTM_SCR_BRK	36400
TTM_SCR_HLD	42000
TTM_SCR_SLD	33000
TTM_SCR_ALL	284900
TTM_SCR_S	275000
TTM_SCR_SS	283500
TTM_RAT_ACV	10049

