VERSION	0.00.00	1.03.00
FES_MODE	0
BPM_DEF	190.000	190.000	190.000	190.000
MET_DEF	4	4
RESOLUTION	384
CLK_DEF	384
COMPATIBLE_CODE	MA2

BPM	0	0	190.000
MET	0	0	4	4

XST	3	0	5
SCR	3	0	5	96	144	0
TAP	4	0	1
TAP	4	192	0
TAP	4	192	1
XST	5	0	2
SCL	5	0	2	96	144	7
TAP	6	0	6
TAP	6	192	6
TAP	6	192	7
TAP	7	0	5
TAP	7	96	5
TAP	7	192	4
TAP	8	0	2
TAP	8	96	2
TAP	8	192	3
STR	8	288	3
SXR	8	288	3	96	480	0
STR	8	288	4
SXL	8	288	4	96	480	7
TAP	11	0	6
TAP	11	96	5
TAP	11	192	4
TAP	11	288	3
TAP	12	0	2
TAP	12	96	1
TAP	12	192	0
TAP	12	192	7
TAP	13	0	1
TAP	13	96	2
TAP	13	192	3
TAP	13	288	4
TAP	14	0	5
TAP	14	96	6
TAP	14	192	0
TAP	14	192	7
TAP	15	0	6
TAP	15	96	6
TAP	15	192	6
TAP	15	192	7
TAP	16	0	1
TAP	16	96	1
TAP	16	192	0
TAP	16	192	1
HLD	17	0	7	144
XTP	17	144	0
XTP	17	240	0
XTP	17	240	7
XTP	17	336	1
XTP	17	336	6
STR	19	0	0
SCR	19	0	0	96	384	5
STR	21	0	7
SCL	21	0	7	96	384	2
HLD	23	0	1	384
HLD	24	0	0	384
HLD	25	0	7	384
TAP	26	0	6
TAP	26	192	6
TAP	26	192	7
HLD	27	0	5	192
TAP	27	192	4
TAP	28	0	2
TAP	28	96	2
TAP	28	192	2
TAP	28	192	3
HLD	29	0	5	192
TAP	29	192	4
TAP	30	0	2
TAP	30	96	2
TAP	30	192	2
TAP	30	192	3
TAP	31	0	1
TAP	31	96	1
TAP	31	192	0
TAP	31	192	1
TAP	32	0	6
TAP	32	96	6
TAP	32	192	6
TAP	32	192	7
TAP	33	0	0
TAP	33	96	0
TAP	33	192	7
TAP	33	288	7
TAP	34	0	0
TAP	34	96	7
TAP	34	192	1
TAP	34	192	6
TTP	35	0	6	E	0	L1
TTP	35	192	5	B	0	L1
TTP	36	0	4	B	0	L1
TTP	37	0	2	E	0	L1
TTP	37	192	2	B	0	L1
TTP	38	0	3	B	0	L1
TTP	39	0	6	E	0	L1
TTP	39	192	5	B	0	L1
TTP	40	0	4	B	0	L1
TTP	40	192	3	B	0	L1
TTP	41	0	2	B	0	L1
TTP	41	0	5	B	0	L1
TTP	41	192	1	B	0	L1
TTP	41	192	6	B	0	L1
TTP	42	0	0	C	1	L1
BRK	43	0	7
TAP	43	96	6
TAP	43	192	6
TAP	43	192	7
TAP	43	288	6
TAP	43	288	7
TAP	44	0	5
TAP	44	96	4
TAP	44	192	3
TAP	44	192	5
TAP	45	0	2
TAP	45	96	2
TAP	45	192	2
TAP	45	192	3
TAP	45	288	2
TAP	45	288	3
TAP	46	0	1
TAP	46	96	0
TAP	46	192	1
TAP	46	192	7
HLD	47	0	6	96
TAP	47	96	7
TAP	47	192	6
TAP	47	192	7
HLD	48	0	1	96
TAP	48	96	0
TAP	48	192	0
TAP	48	192	1
TAP	49	0	7
TAP	49	96	7
TAP	49	192	0
TAP	49	288	0
TAP	50	0	0
TAP	50	0	7
TAP	50	96	0
TAP	50	96	7
XTP	50	192	1
XTP	50	192	6
BRK	51	0	2
TAP	51	96	2
TAP	51	96	3
TAP	51	192	2
TAP	51	288	2
TAP	51	288	3
TAP	52	0	1
TAP	52	96	0
TAP	52	192	1
TAP	52	192	7
TAP	53	0	6
TAP	53	96	6
TAP	53	96	7
TAP	53	192	6
TAP	53	288	6
TAP	53	288	7
TAP	54	0	5
TAP	54	96	4
TAP	54	192	3
TAP	54	192	5
TAP	55	0	2
TAP	55	96	3
TAP	55	192	4
TAP	55	288	5
HLD	56	0	3	192
HLD	56	0	4	192
TAP	57	0	5
TAP	57	96	5
TAP	57	192	4
TAP	57	192	5
STR	58	0	6
SCL	58	0	6	96	144	3
TAP	59	0	2
TAP	59	96	2
TAP	59	192	2
TAP	59	192	3
STR	60	0	1
SCR	60	0	1	96	144	4
STR	61	0	5
SCR	61	0	5	96	144	0
STR	62	0	1
SUR	62	0	1	96	144	5
TAP	63	0	6
TAP	63	192	6
TAP	63	192	7
TAP	64	0	0
TAP	64	0	7
TAP	64	96	1
TAP	64	96	6
TAP	64	192	2
TAP	64	192	5
TAP	65	0	6
TAP	65	96	6
TAP	65	192	5
TAP	65	288	5
STR	66	0	4
SCR	66	0	4	96	144	7
TAP	67	0	0
TAP	67	96	0
TAP	67	192	1
TAP	67	288	1
STR	68	0	2
SCL	68	0	2	96	144	7
TAP	69	0	6
TAP	69	96	6
TAP	69	192	7
TAP	69	288	7
TAP	70	0	0
STR	70	96	0
SCR	70	96	0	96	480	7
BRK	73	0	6
TAP	73	96	5
TAP	73	192	4
TAP	73	288	3
TAP	74	0	2
TAP	74	96	1
TAP	74	192	0
TAP	74	192	7
TAP	75	0	1
TAP	75	96	2
TAP	75	192	3
TAP	75	288	4
TAP	76	0	5
TAP	76	96	6
TAP	76	192	0
TAP	76	192	7
TAP	77	0	6
TAP	77	96	5
TAP	77	192	4
TAP	77	288	3
TAP	78	0	2
TAP	78	96	1
TAP	78	192	0
TAP	78	192	7
TAP	79	0	1
TAP	79	96	2
TAP	79	192	3
TAP	79	288	4
TAP	80	0	3
TAP	80	0	4
TAP	80	96	3
TAP	80	96	4
TAP	80	192	2
TAP	80	192	5
BRK	81	0	6
TAP	81	96	7
TAP	81	192	6
TAP	81	192	7
TAP	81	288	5
TAP	82	0	4
TAP	82	96	4
TAP	82	96	5
TAP	82	192	3
TAP	82	192	6
TAP	83	0	2
TAP	83	96	3
TAP	83	192	2
TAP	83	192	3
TAP	83	288	1
TAP	84	0	0
TAP	84	96	0
TAP	84	96	1
TAP	84	192	2
TAP	84	192	7
TAP	85	0	6
TAP	85	96	7
TAP	85	192	6
TAP	85	192	7
TAP	85	288	5
TAP	86	0	4
TAP	86	96	5
TAP	86	192	3
TAP	86	192	4
STR	86	288	3
SSR	86	288	3	96	384	7
TAP	86	288	4
XTP	88	288	0
XTP	88	288	7
XHO	88	336	0	432
XHO	88	336	7	432

T_REC_TAP	213
T_REC_BRK	4
T_REC_XTP	9
T_REC_HLD	10
T_REC_XHO	2
T_REC_STR	12
T_REC_BST	0
T_REC_XST	2
T_REC_TTP	15
T_REC_THO	0
T_REC_SLD	14
T_REC_ALL	281
T_NUM_TAP	251
T_NUM_BRK	4
T_NUM_HLD	12
T_NUM_SLD	14
T_NUM_ALL	281
T_JUDGE_TAP	255
T_JUDGE_HLD	65
T_JUDGE_SLD	14
T_JUDGE_ALL	334
TTM_EACHPAIRS	56
TTM_SCR_TAP	125500
TTM_SCR_BRK	10400
TTM_SCR_HLD	12000
TTM_SCR_SLD	21000
TTM_SCR_ALL	168900
TTM_SCR_S	163450
TTM_SCR_SS	168500
TTM_RAT_ACV	10023

