VERSION	0.00.00	1.03.00
FES_MODE	0
BPM_DEF	176.000	176.000	176.000	176.000
MET_DEF	4	4
RESOLUTION	384
CLK_DEF	384
COMPATIBLE_CODE	MA2

BPM	0	0	176.000
MET	0	0	4	4

HLD	3	0	3	48
HLD	3	0	5	48
HLD	3	96	2	48
HLD	3	96	4	48
BRK	3	240	0
BRK	3	288	0
HLD	4	0	3	48
HLD	4	0	5	48
HLD	4	96	2	48
HLD	4	96	4	48
BRK	4	240	0
BRK	4	288	0
HLD	5	0	3	48
HLD	5	0	5	48
HLD	5	96	2	48
HLD	5	96	4	48
BRK	5	240	0
BRK	5	288	0
TAP	6	0	3
STR	6	0	5
SCR	6	0	5	96	144	2
BRK	6	96	0
STR	7	0	3
SI_	7	0	3	96	48	0
STR	7	0	4
SI_	7	0	4	96	48	7
BRK	7	96	3
BRK	7	96	4
XTP	7	240	1
XTP	7	240	6
XTP	7	288	1
XTP	7	288	6
STR	8	0	2
SUR	8	0	2	96	48	7
STR	8	0	3
SCR	8	0	3	96	48	6
XTP	8	192	0
XTP	8	240	0
TAP	8	288	1
TAP	8	288	7
STR	9	0	4
SCL	9	0	4	96	48	1
STR	9	0	5
SUL	9	0	5	96	48	0
STR	9	192	2
SUR	9	192	2	96	48	7
STR	9	192	3
SCR	9	192	3	96	48	6
STR	10	0	5
SI_	10	0	5	96	48	2
STR	10	96	1
SI_	10	96	1	96	48	6
STR	10	192	5
SI_	10	192	5	96	48	2
TAP	10	288	0
STR	11	0	3
SI_	11	0	3	96	48	0
STR	11	0	4
SI_	11	0	4	96	48	7
BRK	11	96	3
BRK	11	96	4
XTP	11	240	1
XTP	11	240	6
XTP	11	288	1
XTP	11	288	6
STR	12	0	2
SUR	12	0	2	96	48	7
STR	12	0	3
SCR	12	0	3	96	48	6
XTP	12	192	0
XTP	12	240	0
TAP	12	288	1
TAP	12	288	7
STR	13	0	4
SCL	13	0	4	96	48	1
STR	13	0	5
SUL	13	0	5	96	48	0
STR	13	192	2
SUR	13	192	2	96	48	7
STR	13	192	3
SCR	13	192	3	96	48	6
STR	14	0	0
SI_	14	0	0	96	48	3
STR	14	96	6
SI_	14	96	6	96	48	2
STR	14	192	4
SI_	14	192	4	96	48	7
BRK	14	288	0
STR	15	0	3
SLL	15	0	3	96	144	4
STR	15	0	5
SLR	15	0	5	96	144	4
TAP	15	288	0
TAP	15	288	7
STR	16	0	2
SLL	16	0	2	96	144	3
STR	16	0	4
SLR	16	0	4	96	144	3
TAP	16	288	0
TAP	16	288	7
STR	17	0	0
SI_	17	0	0	96	96	3
STR	17	0	5
SCL	17	0	5	96	96	3
TAP	17	288	0
TAP	17	288	7
TAP	18	0	1
TAP	18	0	6
STR	18	96	0
SI_	18	96	0	96	48	5
STR	18	96	5
SI_	18	96	5	96	48	3
XTP	18	192	0
XTP	18	192	5
XTP	18	288	2
XTP	18	288	7
XTP	18	336	2
STR	18	336	7
SI_	18	336	7	96	48	3
TAP	19	48	1
STR	19	96	1
SI_	19	96	1	96	48	4
HLD	19	192	0	96
BRK	19	288	7
STR	20	0	1
SI_	20	0	1	96	48	4
STR	20	96	6
SI_	20	96	6	96	48	3
HLD	20	192	7	96
BRK	20	288	0
HLD	21	0	2	48
HLD	21	0	7	48
HLD	21	96	0	48
HLD	21	96	7	48
HLD	21	192	1	48
HLD	21	192	6	48
HLD	21	288	0	48
HLD	21	288	2	48
TAP	22	0	2
TAP	22	0	5
TAP	22	48	2
TAP	22	48	5
TAP	22	96	1
TAP	22	96	6
TAP	22	144	1
TAP	22	144	6
STR	22	192	3
SI_	22	192	3	96	48	0
STR	22	192	4
SI_	22	192	4	96	48	7
BRK	22	288	3
BRK	22	288	4
HLD	23	96	1	96
TAP	23	96	6
HLD	23	192	3	192
TAP	23	288	0
HLD	24	0	4	192
TAP	24	96	7
HLD	24	192	5	192
TAP	24	288	7
HLD	25	0	4	192
TAP	25	96	7
HLD	25	192	3	96
TAP	25	288	0
TAP	26	0	1
TAP	26	0	7
TAP	26	48	2
TAP	26	48	6
TAP	26	144	0
TAP	26	144	4
BRK	27	0	3
BRK	27	0	5
BRK	27	96	0
BRK	27	192	2
BRK	27	192	4
BRK	27	288	7
BRK	28	0	3
BRK	28	0	5
BRK	28	96	0
BRK	28	192	2
BRK	28	192	4
BRK	28	288	7
TAP	29	0	3
STR	29	0	5
SI_	29	0	5	96	48	7
TAP	29	96	4
TAP	29	192	3
STR	29	192	5
SI_	29	192	5	96	48	7
TAP	29	288	4
TAP	30	0	4
TAP	30	0	5
STR	30	48	4
SUR	30	48	4	96	96	3
STR	30	48	5
SCR	30	48	5	96	96	2
STR	31	0	6
SI_	31	0	6	96	48	3
STR	31	96	1
SI_	31	96	1	96	48	6
STR	31	192	3
SI_	31	192	3	96	48	0
STR	32	0	6
SI_	32	0	6	96	48	3
STR	32	96	1
SI_	32	96	1	96	48	6
STR	32	192	3
SI_	32	192	3	96	48	0
STR	33	0	5
SI_	33	0	5	96	48	2
STR	33	96	2
SCR	33	96	2	96	48	5
TAP	33	192	0
TAP	33	288	7
TAP	34	0	2
TAP	34	0	3
STR	34	48	2
SCL	34	48	2	96	96	5
STR	34	48	3
SUL	34	48	3	96	96	4
STR	35	0	2
SUR	35	0	2	96	96	4
XTP	35	144	7
XST	35	192	7
SI_	35	192	7	96	48	3
BRK	35	288	7
STR	36	0	2
SUR	36	0	2	96	96	4
XTP	36	144	7
XST	36	192	7
SI_	36	192	7	96	48	3
BRK	36	288	7
STR	37	0	2
SUR	37	0	2	96	96	4
XTP	37	144	7
XST	37	192	7
SI_	37	192	7	96	48	3
BRK	37	288	7
STR	38	0	2
SUR	38	0	2	96	96	4
XTP	38	144	7
XST	38	192	7
SI_	38	192	7	96	48	3
BRK	38	288	7
STR	39	0	4
SI_	39	0	4	96	48	6
STR	39	96	3
SI_	39	96	3	96	48	1
STR	39	192	4
SI_	39	192	4	96	48	7
STR	39	288	3
SI_	39	288	3	96	48	0
STR	40	0	4
SI_	40	0	4	96	48	6
STR	40	96	3
SI_	40	96	3	96	48	1
STR	40	192	4
SI_	40	192	4	96	48	7
TAP	40	288	0
TAP	41	0	0
TAP	41	0	6
TAP	41	48	1
TAP	41	48	7
HLD	41	96	0	48
HLD	41	96	6	48
TAP	41	192	1
TAP	41	192	7
TAP	41	240	0
TAP	41	240	6
TAP	41	288	1
TAP	41	288	7
BRK	42	0	0
TTP	42	0	0	C	1	M1
TTP	42	0	4	B	0	M1
TAP	42	240	7
TAP	42	288	0
TAP	43	0	2
HLD	43	48	2	144
TAP	43	96	0
TAP	43	192	5
HLD	43	240	5	144
TAP	43	288	7
TAP	44	0	0
HLD	44	48	0	144
TAP	44	96	2
TAP	44	192	7
HLD	44	240	7	144
TAP	44	288	5
STR	45	0	1
SI_	45	0	1	96	48	6
TAP	45	96	5
STR	45	192	1
SI_	45	192	1	96	48	6
TAP	45	192	4
TAP	45	288	5
TAP	46	0	2
TAP	46	0	3
STR	46	48	2
SCL	46	48	2	96	96	5
STR	46	48	3
SUL	46	48	3	96	96	4
STR	47	0	2
SCR	47	0	2	96	48	5
TTP	47	96	4	E	0	M1
STR	47	192	6
SCR	47	192	6	96	48	1
TTP	47	288	0	E	0	M1
STR	48	0	2
SCR	48	0	2	96	48	5
TTP	48	96	4	E	0	M1
STR	48	192	6
SCR	48	192	6	96	48	1
TTP	48	288	0	E	0	M1
HLD	49	0	2	48
HLD	49	96	0	48
HLD	49	96	6	48
HLD	49	192	2	48
HLD	49	192	3	48
HLD	49	288	0	48
HLD	49	288	6	48
TAP	50	0	4
TAP	50	0	5
STR	50	48	4
SUR	50	48	4	96	96	3
STR	50	48	5
SCR	50	48	5	96	96	2
STR	51	0	5
SUL	51	0	5	96	96	3
XTP	51	144	0
XST	51	192	0
SI_	51	192	0	96	48	4
BRK	51	288	0
STR	52	0	5
SUL	52	0	5	96	96	3
XTP	52	144	0
XST	52	192	0
SI_	52	192	0	96	48	4
BRK	52	288	0
STR	53	0	5
SUL	53	0	5	96	96	3
XTP	53	144	0
XST	53	192	0
SI_	53	192	0	96	48	4
BRK	53	288	0
STR	54	0	5
SUL	54	0	5	96	96	3
XTP	54	144	0
XST	54	192	0
SI_	54	192	0	96	48	4
BRK	54	288	0
STR	55	0	6
SCL	55	0	6	96	48	3
STR	55	96	7
SV_	55	96	7	96	48	2
STR	55	192	6
SCL	55	192	6	96	48	3
STR	55	288	7
SV_	55	288	7	96	48	2
STR	56	0	6
SCL	56	0	6	96	48	3
STR	56	96	7
SV_	56	96	7	96	48	2
TAP	56	192	6
STR	56	288	4
SF_	56	288	4	96	144	0
TAP	57	288	0
TAP	57	288	5
TAP	58	0	3
BRK	58	0	7
TAP	58	144	1
TAP	58	144	6
TAP	58	240	0
TAP	58	240	7
TAP	58	288	1
TAP	58	288	6
TAP	58	336	2
TAP	58	336	5
STR	59	0	3
SI_	59	0	3	96	48	0
STR	59	0	4
SI_	59	0	4	96	48	7
BRK	59	96	3
BRK	59	96	4
XTP	59	240	1
XTP	59	240	6
XTP	59	288	1
XTP	59	288	6
STR	60	0	2
SCL	60	0	2	96	48	7
STR	60	0	5
SUR	60	0	5	96	48	3
XTP	60	192	0
XTP	60	240	0
TAP	60	288	1
TAP	60	288	7
STR	61	0	2
SUL	61	0	2	96	48	4
STR	61	0	5
SCR	61	0	5	96	48	0
STR	61	192	2
SCL	61	192	2	96	48	7
STR	61	192	5
SUR	61	192	5	96	48	3
STR	62	0	5
SI_	62	0	5	96	48	2
STR	62	96	1
SI_	62	96	1	96	48	6
STR	62	192	5
SI_	62	192	5	96	48	2
TAP	62	288	0
STR	63	0	3
SI_	63	0	3	96	48	0
STR	63	0	4
SI_	63	0	4	96	48	7
BRK	63	96	3
BRK	63	96	4
XTP	63	240	1
XTP	63	240	6
XTP	63	288	1
XTP	63	288	6
STR	64	0	1
SUR	64	0	1	96	48	7
STR	64	0	6
SCL	64	0	6	96	48	3
XTP	64	192	0
XTP	64	240	0
TAP	64	288	1
TAP	64	288	7
STR	65	0	1
SCR	65	0	1	96	48	4
STR	65	0	6
SUL	65	0	6	96	48	0
STR	65	192	1
SUR	65	192	1	96	48	7
STR	65	192	6
SCL	65	192	6	96	48	3
XST	66	0	0
SI_	66	0	0	96	48	3
STR	66	96	6
SI_	66	96	6	96	48	2
STR	66	192	4
SI_	66	192	4	96	48	7
BRK	66	288	0
STR	67	0	3
SLL	67	0	3	96	144	4
STR	67	0	5
SLR	67	0	5	96	144	4
TAP	67	288	0
TAP	67	288	7
STR	68	0	2
SLL	68	0	2	96	144	3
STR	68	0	4
SLR	68	0	4	96	144	3
TAP	68	288	0
TAP	68	288	7
STR	69	0	0
SI_	69	0	0	96	96	3
STR	69	0	5
SCL	69	0	5	96	96	3
TAP	69	288	0
TAP	69	288	7
TAP	70	0	1
TAP	70	0	6
STR	70	96	0
SI_	70	96	0	96	48	5
STR	70	96	5
SI_	70	96	5	96	48	3
XTP	70	192	0
XTP	70	192	5
XTP	70	288	2
XTP	70	288	7
XTP	70	336	2
STR	70	336	7
SI_	70	336	7	96	48	3
TAP	71	48	1
STR	71	96	1
SI_	71	96	1	96	48	4
HLD	71	192	0	96
BRK	71	288	7
STR	72	0	1
SI_	72	0	1	96	48	4
STR	72	96	6
SI_	72	96	6	96	48	3
HLD	72	192	7	96
BRK	72	288	0
HLD	73	0	2	48
HLD	73	0	7	48
HLD	73	96	0	48
HLD	73	96	7	48
HLD	73	192	1	48
HLD	73	192	6	48
HLD	73	288	0	48
HLD	73	288	2	48
TAP	74	0	1
TAP	74	0	5
TAP	74	48	1
TAP	74	48	5
TAP	74	96	2
TAP	74	96	6
TAP	74	144	2
TAP	74	144	6
STR	74	192	1
SI_	74	192	1	96	48	4
STR	74	192	5
SI_	74	192	5	96	48	0
BRK	74	288	1
BRK	74	288	5
TTP	74	312	0	C	1	M1

T_REC_TAP	107
T_REC_BRK	47
T_REC_XTP	42
T_REC_HLD	51
T_REC_XHO	0
T_REC_STR	118
T_REC_BST	0
T_REC_XST	9
T_REC_TTP	7
T_REC_THO	0
T_REC_SLD	127
T_REC_ALL	508
T_NUM_TAP	283
T_NUM_BRK	47
T_NUM_HLD	51
T_NUM_SLD	127
T_NUM_ALL	508
T_JUDGE_TAP	330
T_JUDGE_HLD	77
T_JUDGE_SLD	127
T_JUDGE_ALL	534
TTM_EACHPAIRS	115
TTM_SCR_TAP	141500
TTM_SCR_BRK	122200
TTM_SCR_HLD	51000
TTM_SCR_SLD	190500
TTM_SCR_ALL	505200
TTM_SCR_S	485500
TTM_SCR_SS	500500
TTM_RAT_ACV	10093

