VERSION	0.00.00	1.03.00
FES_MODE	0
BPM_DEF	176.000	176.000	176.000	176.000
MET_DEF	4	4
RESOLUTION	384
CLK_DEF	384
COMPATIBLE_CODE	MA2

BPM	0	0	176.000
MET	0	0	4	4

TAP	3	0	0
TAP	3	0	6
TAP	3	96	1
HLD	3	96	7	144
XTP	3	240	0
XTP	3	288	0
TAP	4	0	1
TAP	4	0	7
HLD	4	96	0	144
TAP	4	96	6
XTP	4	240	7
XTP	4	288	7
TAP	5	0	0
TAP	5	0	6
TAP	5	96	1
HLD	5	96	7	144
XTP	5	240	0
XTP	5	288	0
TAP	6	0	1
TAP	6	0	7
HLD	6	96	0	96
HLD	6	96	6	96
TAP	6	288	1
TAP	6	288	5
STR	7	0	3
SI_	7	0	3	96	48	0
STR	7	0	4
SI_	7	0	4	96	48	7
TAP	8	0	3
TAP	8	0	5
STR	8	96	2
SUR	8	96	2	96	72	6
TAP	8	96	4
XTP	9	0	7
TAP	9	96	4
TAP	9	96	6
TAP	9	192	0
TAP	9	288	1
STR	9	288	3
SCL	9	288	3	96	120	6
TAP	10	240	0
TAP	10	288	0
STR	11	0	3
SI_	11	0	3	96	48	7
STR	11	0	4
SI_	11	0	4	96	48	0
TAP	12	0	3
TAP	12	0	4
STR	12	96	2
SXR	12	96	2	96	120	1
STR	12	96	5
SXL	12	96	5	96	120	6
XTP	13	0	2
TAP	13	96	1
TAP	13	96	3
TAP	13	192	4
TAP	13	192	6
TAP	13	288	5
HLD	14	0	0	144
HLD	14	0	3	144
TAP	14	240	1
TAP	14	240	4
TAP	14	288	1
TAP	14	288	4
XHO	15	0	2	384
TAP	15	96	3
TAP	15	144	3
TAP	15	240	5
TAP	15	288	5
XHO	16	0	6	288
TAP	16	96	4
TAP	16	144	4
TAP	16	240	2
TAP	16	288	2
XHO	17	0	0	288
TAP	17	96	3
TAP	17	144	3
TAP	17	240	5
TAP	17	288	5
TAP	18	0	1
TAP	18	0	6
TAP	18	96	2
TAP	18	96	5
TAP	18	192	3
TAP	18	192	4
TAP	18	288	0
TAP	18	288	7
XHO	18	336	0	96
XHO	18	336	7	96
TAP	19	96	4
TAP	19	96	6
TAP	19	192	1
TAP	19	192	3
TAP	19	288	0
TAP	19	288	7
TAP	19	336	0
TAP	19	336	7
TAP	20	48	2
TAP	20	48	5
TAP	20	96	2
TAP	20	96	5
TAP	20	192	1
TAP	20	192	6
TAP	20	288	2
TAP	20	288	5
STR	20	336	2
SXR	20	336	2	96	216	4
STR	20	336	5
SXL	20	336	5	96	216	3
TAP	22	0	3
TAP	22	0	5
HLD	22	96	2	96
HLD	22	96	4	96
BRK	22	288	0
BRK	22	288	7
HLD	23	0	5	192
XTP	23	96	7
HLD	23	192	4	192
XTP	23	288	7
HLD	24	0	5	192
XTP	24	96	7
HLD	24	192	4	192
XTP	24	288	7
HLD	25	0	3	192
XTP	25	96	0
HLD	25	192	2	96
XTP	25	288	0
TAP	26	0	1
TAP	26	0	7
TAP	26	48	1
TAP	26	48	7
BRK	26	144	2
BRK	26	144	6
TAP	26	288	3
TAP	26	288	4
TAP	27	0	5
TAP	27	96	4
TAP	27	96	6
TAP	27	192	3
TAP	27	288	2
TAP	27	288	4
TAP	28	0	5
TAP	28	96	4
TAP	28	96	6
TAP	28	192	3
TAP	28	288	2
TAP	28	288	4
TTP	29	0	5	B	0	M1
TTP	29	0	5	E	0	M1
TTP	29	96	7	B	0	M1
TTP	29	96	7	E	0	M1
TTP	29	192	2	B	0	M1
TTP	29	192	3	E	0	M1
TTP	29	288	0	B	0	M1
TTP	29	288	1	E	0	M1
TTP	30	0	3	B	0	M1
TTP	30	0	4	B	0	M1
TTP	30	96	2	E	0	M1
TTP	30	96	6	E	0	M1
TTP	30	192	1	E	0	M1
TTP	30	192	7	E	0	M1
XTP	31	0	2
TAP	31	96	1
TAP	31	96	3
TAP	31	192	4
TAP	31	288	3
TAP	31	288	5
TAP	32	0	2
TAP	32	96	1
TAP	32	96	3
TAP	32	192	4
TAP	32	288	3
TAP	32	288	5
STR	33	0	2
SCR	33	0	2	96	72	5
STR	33	192	6
SUL	33	192	6	96	72	2
STR	34	0	1
SCL	34	0	1	96	72	6
XTP	34	288	3
XTP	34	288	4
STR	35	0	2
SCL	35	0	2	96	96	7
XTP	35	288	6
STR	36	0	6
SCL	36	0	6	96	96	3
XTP	36	288	2
STR	37	0	2
SCL	37	0	2	96	96	7
XTP	37	288	6
STR	38	0	6
SCL	38	0	6	96	96	3
XTP	38	288	2
TAP	39	0	2
TAP	39	0	3
STR	39	96	4
SI_	39	96	4	96	96	7
TAP	39	96	5
TAP	40	0	4
TAP	40	0	5
TAP	40	96	2
STR	40	96	3
SI_	40	96	3	96	96	0
TAP	41	0	6
TAP	41	96	3
TAP	41	96	5
TAP	41	192	1
TAP	41	288	2
TAP	41	288	4
BRK	42	0	1
BRK	42	0	5
TAP	42	288	0
TAP	42	288	7
TAP	43	0	5
TAP	43	96	4
TAP	43	96	6
TAP	43	192	3
TAP	43	288	2
TAP	43	288	4
TAP	44	0	5
TAP	44	96	4
TAP	44	96	6
TAP	44	192	3
TAP	44	288	2
TAP	44	288	4
HLD	45	0	5	96
HLD	45	96	6	96
HLD	45	192	7	96
TAP	45	288	0
HLD	46	0	2	96
HLD	46	96	1	96
TAP	46	192	0
TAP	47	0	2
TAP	47	96	1
TAP	47	96	3
TAP	47	192	4
TAP	47	288	3
TAP	47	288	5
TAP	48	0	2
TAP	48	96	1
TAP	48	96	3
TAP	48	192	4
TAP	48	288	3
TAP	48	288	5
TTP	49	0	6	E	0	M1
TTP	49	96	7	E	0	M1
TTP	49	192	0	E	0	M1
TTP	49	288	1	E	0	M1
TTP	50	0	2	E	0	M1
TTP	50	96	3	E	0	M1
TTP	50	192	4	E	0	M1
STR	51	0	6
SCR	51	0	6	96	96	1
XTP	51	288	2
STR	52	0	2
SCR	52	0	2	96	96	5
XTP	52	288	6
STR	53	0	6
SCR	53	0	6	96	96	1
XTP	53	288	2
STR	54	0	2
SCR	54	0	2	96	96	5
XTP	54	288	6
HLD	55	0	5	96
HLD	55	96	4	96
HLD	55	192	3	96
HLD	55	288	2	96
HLD	56	0	1	96
HLD	56	96	0	96
HLD	56	192	7	96
STR	56	288	4
SCL	56	288	4	96	96	1
SCR	56	288	4	96	96	7
TAP	57	288	0
TTP	58	0	0	C	1	M1
TTP	58	0	2	B	0	M1
TTP	58	0	6	B	0	M1
STR	59	0	3
SI_	59	0	3	96	48	0
STR	59	0	4
SI_	59	0	4	96	48	7
TAP	60	0	3
TAP	60	0	5
STR	60	96	2
SUR	60	96	2	96	72	6
TAP	60	96	4
XTP	61	0	7
TAP	61	96	4
TAP	61	96	6
TAP	61	192	0
TAP	61	288	1
STR	61	288	3
SCL	61	288	3	96	120	6
TAP	62	240	2
TAP	62	240	6
TAP	62	288	2
TAP	62	288	6
STR	63	0	3
SI_	63	0	3	96	48	7
STR	63	0	4
SI_	63	0	4	96	48	0
TAP	64	0	3
TAP	64	0	4
STR	64	96	2
SXR	64	96	2	96	120	1
STR	64	96	5
SXL	64	96	5	96	120	6
XTP	65	0	2
TAP	65	96	1
TAP	65	96	3
TAP	65	192	5
STR	65	288	4
SUL	65	288	4	96	96	0
TAP	65	288	6
TAP	66	240	1
TAP	66	240	5
TAP	66	288	1
TAP	66	288	5
XHO	67	0	2	384
TAP	67	96	3
TAP	67	144	3
TAP	67	240	5
TAP	67	288	5
XHO	68	0	6	288
TAP	68	96	4
TAP	68	144	4
TAP	68	240	2
TAP	68	288	2
XHO	69	0	0	288
TAP	69	96	3
TAP	69	144	3
TAP	69	240	5
TAP	69	288	5
TAP	70	0	1
TAP	70	0	6
TAP	70	96	2
TAP	70	96	5
TAP	70	192	3
TAP	70	192	4
TAP	70	288	0
TAP	70	288	7
XHO	70	336	0	96
XHO	70	336	7	96
TAP	71	96	4
TAP	71	96	6
TAP	71	192	1
TAP	71	192	3
TAP	71	288	0
TAP	71	288	7
TAP	71	336	0
TAP	71	336	7
TAP	72	48	2
TAP	72	48	5
TAP	72	96	2
TAP	72	96	5
TAP	72	192	1
TAP	72	192	6
TAP	72	288	2
TAP	72	288	5
STR	72	336	2
SXR	72	336	2	96	216	4
STR	72	336	5
SXL	72	336	5	96	216	3
HLD	74	0	1	48
HLD	74	0	5	48
HLD	74	96	2	48
HLD	74	96	6	48
TAP	74	192	3
TAP	74	192	5
BRK	74	288	0
BRK	74	288	4

T_REC_TAP	200
T_REC_BRK	8
T_REC_XTP	27
T_REC_HLD	31
T_REC_XHO	10
T_REC_STR	35
T_REC_BST	0
T_REC_XST	0
T_REC_TTP	24
T_REC_THO	0
T_REC_SLD	36
T_REC_ALL	371
T_NUM_TAP	286
T_NUM_BRK	8
T_NUM_HLD	41
T_NUM_SLD	36
T_NUM_ALL	371
T_JUDGE_TAP	294
T_JUDGE_HLD	121
T_JUDGE_SLD	36
T_JUDGE_ALL	451
TTM_EACHPAIRS	100
TTM_SCR_TAP	143000
TTM_SCR_BRK	20800
TTM_SCR_HLD	41000
TTM_SCR_SLD	54000
TTM_SCR_ALL	258800
TTM_SCR_S	250300
TTM_SCR_SS	258000
TTM_RAT_ACV	10031

