VERSION	0.00.00	1.03.00
FES_MODE	0
BPM_DEF	176.000	176.000	176.000	176.000
MET_DEF	4	4
RESOLUTION	384
CLK_DEF	384
COMPATIBLE_CODE	MA2

BPM	0	0	176.000
MET	0	0	4	4

TAP	3	0	3
TAP	3	0	4
TAP	3	96	3
TAP	3	96	4
TAP	4	0	2
TAP	4	0	5
TAP	4	96	2
TAP	4	96	5
TAP	5	0	1
TAP	5	0	6
TAP	5	96	1
TAP	5	96	6
TAP	6	0	0
TAP	6	0	7
TAP	6	96	0
TAP	6	96	7
TAP	7	0	1
TAP	7	0	6
BRK	7	96	0
BRK	7	96	7
XTP	8	0	7
XTP	8	96	7
XTP	8	192	0
XTP	8	192	7
TAP	9	0	1
TAP	9	96	0
TAP	9	96	1
TAP	9	192	6
TAP	9	288	6
TAP	9	288	7
TAP	10	0	1
TAP	10	96	0
TAP	10	96	7
TAP	10	192	1
TAP	10	192	6
TAP	11	0	0
TAP	11	0	7
BRK	11	96	0
BRK	11	96	7
TAP	12	0	1
TAP	12	96	1
XTP	12	192	0
XTP	12	192	1
TAP	13	0	6
TAP	13	96	6
TAP	13	96	7
TAP	13	192	1
TAP	13	288	0
TAP	13	288	1
TAP	14	0	6
TAP	14	96	0
TAP	14	96	7
TAP	14	192	1
TAP	14	192	6
STR	15	0	5
SCR	15	0	5	96	144	0
STR	16	0	1
SCR	16	0	1	96	144	4
STR	17	0	5
SCR	17	0	5	96	144	0
TAP	18	0	1
TAP	18	96	0
TAP	18	192	7
TAP	18	288	6
TAP	19	0	0
TAP	19	0	7
TAP	19	96	1
TAP	19	96	6
TAP	19	192	2
TAP	19	192	5
STR	19	288	3
SI_	19	288	3	96	192	0
STR	19	288	4
SI_	19	288	4	96	192	7
XTP	21	0	7
XTP	21	96	6
XTP	21	192	5
XTP	21	288	4
TAP	22	0	3
TAP	22	0	4
TAP	22	96	2
TAP	22	96	5
TAP	22	192	1
TAP	22	192	6
BRK	22	288	0
BRK	22	288	7
TAP	23	0	1
TAP	23	96	1
TAP	23	192	0
TAP	23	288	0
TAP	24	0	7
TAP	24	96	7
TAP	24	192	0
TAP	24	192	6
TAP	25	0	5
TAP	25	96	5
TAP	25	192	4
TAP	25	288	4
XTP	26	0	3
XTP	26	0	4
XTP	26	96	3
XTP	26	96	4
XTP	26	192	2
XTP	26	192	5
HLD	27	0	6	192
TAP	27	192	7
HLD	28	0	1	192
TAP	28	192	0
HLD	29	0	6	192
HLD	29	192	7	192
HLD	30	0	0	192
XTP	30	192	1
HLD	31	0	2	192
TAP	31	192	3
HLD	32	0	5	192
TAP	32	192	4
HLD	33	0	2	192
HLD	33	192	3	192
HLD	34	0	4	192
TAP	34	192	5
TTP	35	0	6	B	0	L1
TTP	35	0	7	B	0	L1
TTP	36	0	0	B	0	L1
TTP	36	0	1	B	0	L1
TTP	37	0	2	B	0	L1
TTP	37	0	3	B	0	L1
TTP	38	0	4	B	0	L1
TTP	38	0	5	B	0	L1
TAP	39	0	2
TAP	39	96	2
TAP	39	192	2
TAP	39	192	3
TAP	40	0	5
TAP	40	96	5
TAP	40	192	4
TAP	40	192	5
TAP	41	0	3
TAP	41	96	3
TAP	41	192	4
STR	41	288	3
SI_	41	288	3	96	192	0
STR	41	288	4
SI_	41	288	4	96	192	7
HLD	43	0	1	192
HLD	43	192	0	192
HLD	44	0	7	192
TAP	44	192	6
TAP	45	0	1
TAP	45	96	1
TAP	45	192	0
TAP	46	0	6
TAP	46	96	6
TAP	46	192	7
HLD	47	0	5	192
HLD	47	192	4	192
HLD	48	0	3	192
TAP	48	192	2
TAP	49	0	5
TAP	49	96	5
TAP	49	192	4
TAP	50	0	3
TAP	50	96	3
TAP	50	192	2
TAP	50	192	4
STR	51	0	5
SCR	51	0	5	96	144	0
STR	52	0	1
SUR	52	0	1	96	144	5
STR	53	0	6
SUL	53	0	6	96	144	2
STR	54	0	1
SCR	54	0	1	96	144	4
TAP	55	0	5
TAP	55	96	5
TAP	55	192	4
TAP	55	192	5
TAP	56	0	2
TAP	56	96	2
TAP	56	192	2
TAP	56	192	3
STR	57	0	3
SI_	57	0	3	96	144	0
STR	57	0	4
SI_	57	0	4	96	144	7
BRK	58	0	0
BRK	58	0	7
TTP	59	96	0	C	1	L1
XTP	60	0	0
XTP	60	96	0
XTP	60	192	0
XTP	60	192	7
TAP	61	0	6
TAP	61	96	6
TAP	61	96	7
TAP	61	192	1
TAP	61	288	0
TAP	61	288	1
TAP	62	0	6
TAP	62	96	0
TAP	62	96	7
TAP	62	192	1
TAP	62	192	6
TAP	63	0	0
TAP	63	0	7
BRK	63	96	0
BRK	63	96	7
TAP	64	0	6
TAP	64	96	6
XTP	64	192	6
XTP	64	192	7
TAP	65	0	1
TAP	65	96	0
TAP	65	96	1
TAP	65	192	6
TAP	65	288	6
TAP	65	288	7
TAP	66	0	1
TAP	66	96	0
TAP	66	96	7
TAP	66	192	1
TAP	66	192	6
STR	67	0	2
SCL	67	0	2	96	144	7
STR	68	0	6
SCL	68	0	6	96	144	3
STR	69	0	2
SCL	69	0	2	96	144	7
TAP	70	0	6
TAP	70	96	7
TAP	70	192	0
TAP	70	288	1
TAP	71	0	0
TAP	71	0	7
TAP	71	96	1
TAP	71	96	6
TAP	71	192	2
TAP	71	192	5
STR	71	288	3
SI_	71	288	3	96	192	0
STR	71	288	4
SI_	71	288	4	96	192	7
XTP	73	0	0
XTP	73	96	1
XTP	73	192	2
XTP	73	288	3
TAP	74	0	3
TAP	74	0	4
TAP	74	96	2
TAP	74	96	5
TAP	74	192	1
TAP	74	192	6
BRK	74	288	0
BRK	74	288	7

T_REC_TAP	153
T_REC_BRK	12
T_REC_XTP	27
T_REC_HLD	16
T_REC_XHO	0
T_REC_STR	18
T_REC_BST	0
T_REC_XST	0
T_REC_TTP	9
T_REC_THO	0
T_REC_SLD	18
T_REC_ALL	253
T_NUM_TAP	207
T_NUM_BRK	12
T_NUM_HLD	16
T_NUM_SLD	18
T_NUM_ALL	253
T_JUDGE_TAP	219
T_JUDGE_HLD	64
T_JUDGE_SLD	18
T_JUDGE_ALL	301
TTM_EACHPAIRS	62
TTM_SCR_TAP	103500
TTM_SCR_BRK	31200
TTM_SCR_HLD	16000
TTM_SCR_SLD	27000
TTM_SCR_ALL	177700
TTM_SCR_S	171250
TTM_SCR_SS	176500
TTM_RAT_ACV	10067

