VERSION	0.00.00	1.03.00
FES_MODE	0
BPM_DEF	185.000	185.000	185.000	185.000
MET_DEF	4	4
RESOLUTION	384
CLK_DEF	384
COMPATIBLE_CODE	MA2

BPM	0	0	185.000
MET	0	0	4	4

STR	1	96	2
SUL	1	96	2	96	480	6
STR	1	96	3
SV_	1	96	3	96	480	6
TAP	3	0	3
TAP	3	0	5
TAP	3	48	4
TAP	3	96	3
TAP	3	144	2
TAP	3	144	4
TAP	3	240	5
TAP	3	288	4
TAP	3	288	6
TAP	4	0	2
TAP	4	48	1
TAP	4	48	3
TAP	4	96	0
TAP	4	144	7
HLD	4	192	4	48
HLD	4	192	6	48
HLD	4	264	1	48
HLD	4	264	3	48
TAP	4	336	3
TAP	4	336	4
STR	5	192	0
SI_	5	192	0	96	48	4
TAP	5	288	7
TAP	5	336	7
STR	6	48	1
SCL	6	48	1	96	96	6
STR	6	144	6
SCL	6	144	6	96	96	3
STR	6	240	3
SCL	6	240	3	96	96	0
TAP	6	336	0
TAP	7	0	7
TAP	7	48	6
TAP	7	96	5
STR	7	144	5
SI_	7	144	5	96	48	2
TAP	7	240	0
STR	7	288	0
SI_	7	288	0	96	48	3
TAP	8	0	4
TAP	8	48	5
TAP	8	96	6
STR	8	144	7
SI_	8	144	7	96	48	4
TAP	8	240	3
TAP	8	288	2
TAP	8	336	1
TAP	9	0	0
TAP	9	48	6
TAP	9	96	1
TAP	9	144	7
STR	9	192	7
SI_	9	192	7	96	48	3
TAP	9	288	0
TAP	9	336	0
STR	10	48	6
SCR	10	48	6	96	96	1
STR	10	144	1
SCR	10	144	1	96	96	4
STR	10	240	4
SCR	10	240	4	96	96	7
TAP	10	336	7
TAP	11	0	0
TAP	11	48	1
TAP	11	96	2
STR	11	144	2
SI_	11	144	2	96	48	5
TAP	11	240	7
STR	11	288	7
SI_	11	288	7	96	48	4
TAP	12	0	3
TAP	12	48	2
TAP	12	96	1
STR	12	144	0
SI_	12	144	0	96	48	3
TAP	12	240	4
TAP	12	288	5
TAP	12	336	6
TAP	13	0	7
TAP	13	48	1
TAP	13	96	6
BST	13	144	0
SUR	13	144	0	96	528	3
HLD	15	0	5	1344
TTP	15	96	4	B	0	M1
TTP	15	192	3	E	0	M1
TTP	15	288	3	B	0	M1
TTP	16	0	5	E	0	M1
TTP	16	96	4	B	0	M1
TTP	16	192	3	E	0	M1
TTP	16	288	3	B	0	M1
TTP	17	0	5	B	0	M1
TTP	17	96	4	E	0	M1
TTP	17	192	2	B	0	M1
TTP	17	288	4	E	0	M1
TTP	18	0	6	B	0	M1
TTP	18	96	0	E	0	M1
TTP	18	192	1	B	0	M1
TAP	18	288	3
TAP	18	288	5
HLD	19	0	2	960
TTP	19	96	3	B	0	M1
TTP	19	192	5	E	0	M1
TTP	19	288	4	B	0	M1
TTP	20	0	1	B	0	M1
TTP	20	96	3	E	0	M1
TTP	20	192	2	E	0	M1
TTP	20	288	3	B	0	M1
TTP	21	0	5	E	0	M1
TTP	21	96	0	C	0	M1
TTP	21	192	1	E	0	M1
TAP	21	288	3
TAP	21	288	7
TAP	21	336	3
TAP	21	336	7
TAP	22	48	6
TAP	22	72	4
TAP	22	96	5
TAP	22	144	5
TAP	22	192	2
TAP	22	192	4
TAP	22	240	3
TAP	22	240	5
TAP	23	0	2
TAP	23	0	3
TAP	23	48	1
STR	23	96	1
SI_	23	96	1	96	48	3
TAP	23	192	4
STR	23	240	4
SI_	23	240	4	96	48	6
TAP	23	336	3
STR	24	0	3
SLL	24	0	3	96	192	4
TAP	24	96	0
TAP	24	192	7
TAP	24	240	7
STR	24	336	6
SI_	24	336	6	96	48	4
TAP	25	48	3
STR	25	96	3
SI_	25	96	3	96	48	1
TAP	25	192	4
STR	25	240	4
SI_	25	240	4	96	48	7
TAP	25	336	0
TAP	26	48	1
TAP	26	96	0
TAP	26	144	2
TAP	26	192	7
TAP	26	240	3
TAP	26	288	6
TAP	26	336	4
TAP	26	336	5
TAP	27	48	6
STR	27	96	6
SI_	27	96	6	96	48	4
TAP	27	192	3
STR	27	240	3
SI_	27	240	3	96	48	1
TAP	27	336	4
STR	28	0	4
SLR	28	0	4	96	192	3
TAP	28	96	0
TAP	28	144	0
TAP	28	240	1
STR	28	288	1
SI_	28	288	1	96	48	3
TAP	29	0	4
STR	29	48	4
SI_	29	48	4	96	48	6
TAP	29	144	3
STR	29	192	3
SI_	29	192	3	96	48	0
TAP	29	288	7
TAP	29	336	7
TAP	30	48	6
TAP	30	96	7
TAP	30	144	5
TAP	30	192	0
STR	30	240	4
SCR	30	240	4	96	192	3
TAP	30	288	1
BRK	30	336	1
TAP	31	192	0
TAP	31	240	0
STR	31	288	1
SI_	31	288	1	96	48	6
TAP	32	0	4
TAP	32	48	4
STR	32	96	5
SI_	32	96	5	96	48	2
TAP	32	192	0
TAP	32	240	0
TAP	32	288	1
STR	32	336	1
SCL	32	336	1	96	144	2
TAP	33	48	4
TAP	33	192	7
TAP	33	240	7
STR	33	288	6
SI_	33	288	6	96	48	1
TAP	34	0	2
TAP	34	48	2
STR	34	96	3
SI_	34	96	3	96	48	0
TAP	34	192	7
TAP	34	240	7
TAP	34	288	6
TAP	34	336	0
TTP	35	0	0	C	1	M1
TAP	36	144	2
TAP	36	168	3
TAP	36	192	2
TAP	36	240	1
TAP	36	240	4
TAP	36	288	2
TAP	36	336	5
TAP	37	0	4
TAP	37	0	6
TAP	37	96	2
TAP	37	144	1
TAP	37	144	3
TAP	37	240	3
TAP	37	240	4
TAP	37	288	2
TAP	37	288	5
BRK	37	336	0
TTP	37	336	0	C	1	M1
TAP	38	144	6
TAP	38	144	7
TAP	38	192	5
STR	38	240	0
SV_	38	240	0	96	48	5
STR	38	240	1
SUR	38	240	1	96	48	5
TAP	38	288	2
TAP	38	336	0
TAP	38	336	1
TAP	39	48	3
TAP	39	48	7
TAP	39	144	6
TAP	39	144	7
TAP	39	192	5
STR	39	240	0
SV_	39	240	0	96	48	5
STR	39	240	1
SUR	39	240	1	96	48	5
TAP	39	288	2
TAP	39	336	0
TAP	39	336	1
TAP	40	48	3
TAP	40	48	7
STR	40	144	1
SI_	40	144	1	96	48	6
STR	40	192	5
SI_	40	192	5	96	48	2
TAP	40	240	1
TAP	40	288	5
STR	40	336	0
SCR	40	336	0	96	48	3
TAP	41	48	5
STR	41	96	5
SCR	41	96	5	96	48	0
TAP	41	192	4
STR	41	240	4
SI_	41	240	4	96	48	7
HLD	41	336	0	96
TAP	42	48	7
TAP	42	96	1
TAP	42	96	6
TAP	42	192	2
TAP	42	192	3
STR	42	264	0
SV_	42	264	0	96	48	3
STR	42	264	4
SUR	42	264	4	96	48	0
TAP	42	336	0
TAP	42	336	4
XTP	43	48	2
XTP	43	48	6
TAP	43	96	1
TAP	43	96	5
TAP	43	192	0
TAP	43	192	4
STR	43	264	2
SV_	43	264	2	96	48	5
STR	43	264	6
SUR	43	264	6	96	48	2
TAP	43	336	2
TAP	43	336	6
XTP	44	48	3
XTP	44	48	7
TAP	44	96	2
TAP	44	96	6
STR	44	192	0
SUL	44	192	0	96	48	4
STR	44	240	4
SV_	44	240	4	96	48	1
TAP	44	288	0
XTP	44	336	6
TAP	45	48	7
TAP	45	96	3
TAP	45	144	6
TAP	45	192	2
STR	45	240	1
SI_	45	240	1	96	48	4
STR	45	240	5
SI_	45	240	5	96	48	0
TAP	45	288	0
TAP	45	288	4
TAP	45	336	1
TAP	45	336	5
BRK	46	48	2
BRK	46	48	6
TAP	46	144	0
TAP	46	144	1
TAP	46	192	2
STR	46	240	6
SUL	46	240	6	96	48	2
STR	46	240	7
SV_	46	240	7	96	48	2
TAP	46	288	5
TAP	46	336	6
TAP	46	336	7
TAP	47	48	0
TAP	47	48	4
TAP	47	144	0
TAP	47	144	1
TAP	47	192	2
STR	47	240	6
SUL	47	240	6	96	48	2
STR	47	240	7
SV_	47	240	7	96	48	2
TAP	47	288	5
TAP	47	336	6
TAP	47	336	7
TAP	48	48	0
TAP	48	48	4
STR	48	144	6
SI_	48	144	6	96	48	1
STR	48	192	2
SI_	48	192	2	96	48	5
TAP	48	240	6
TAP	48	288	2
TAP	48	336	7
TAP	49	48	0
TAP	49	48	1
TAP	49	96	2
TAP	49	96	7
TAP	49	168	1
HLD	49	192	1	72
TAP	49	264	3
HLD	49	288	3	72
TAP	49	360	4
HLD	50	0	4	72
TAP	50	72	6
HLD	50	96	6	96
TAP	50	168	0
TAP	50	192	0
TAP	50	240	1
TAP	50	240	5
TAP	50	288	2
TAP	50	288	6
BRK	50	336	3
BRK	50	336	7
TAP	51	48	6
TAP	51	48	7
TAP	51	96	0
TAP	51	96	5
TAP	51	144	1
TAP	51	144	4
TAP	51	192	2
TAP	51	192	3
TAP	51	240	1
STR	51	288	1
SI_	51	288	1	96	48	4
STR	51	336	5
SI_	51	336	5	96	48	0
TAP	52	0	1
TAP	52	48	5
TAP	52	144	2
TAP	52	192	3
TAP	52	240	4
TAP	52	288	2
TAP	52	336	3
TAP	53	0	0
TAP	53	0	1
TAP	53	48	2
TAP	53	48	7
TAP	53	96	3
TAP	53	96	6
TAP	53	144	6
TAP	53	144	7
TAP	53	192	0
TAP	53	192	5
TAP	53	240	1
TAP	53	240	4
TAP	53	288	2
TAP	53	288	3
STR	53	336	1
SUL	53	336	1	96	48	5
STR	53	336	5
SV_	53	336	5	96	48	2
TAP	54	48	1
TAP	54	48	5
STR	54	144	0
SUL	54	144	0	96	48	4
SV_	54	144	0	96	48	3
TAP	54	144	4
STR	54	240	0
SCR	54	240	0	96	96	6
TTP	54	336	0	C	1	M1
TAP	55	96	0
TAP	55	144	1
XTP	55	144	7
TAP	55	240	2
TAP	55	288	1
TAP	55	288	3
TAP	56	0	5
TAP	56	48	4
TAP	56	48	6
TAP	56	144	3
TAP	56	144	4
TAP	56	192	2
TAP	56	216	3
TAP	56	240	2
TAP	56	264	3
TAP	56	288	2
TAP	56	312	3
TAP	56	336	2
TAP	56	360	3
BRK	57	0	1
TAP	57	96	5
TAP	57	144	4
TAP	57	144	6
TAP	57	240	2
TAP	57	288	1
TAP	57	288	3
TAP	58	0	7
TAP	58	48	0
TAP	58	48	6
TAP	58	144	2
TAP	58	168	3
TAP	58	192	2
TAP	58	240	3
TAP	58	240	4
TAP	58	288	2
BRK	58	288	6
TAP	59	0	1
TAP	59	0	3
TAP	59	48	0
TAP	59	96	7
TAP	59	144	4
TAP	59	144	6
TAP	59	192	7
TAP	59	240	0
TAP	59	288	1
TAP	59	288	3
TAP	60	0	3
TAP	60	0	6
TAP	60	48	4
TAP	60	96	5
TAP	60	144	2
TAP	60	192	3
STR	60	240	0
SSL	60	240	0	96	384	4
TAP	60	288	1
BRK	60	336	0
TAP	62	48	3
TAP	62	48	7
TAP	62	96	2
TAP	62	96	6
TAP	62	192	0
TAP	62	192	4
STR	62	240	2
SV_	62	240	2	96	48	7
TAP	62	240	6
HLD	62	336	4	144
TAP	63	96	0
TAP	63	144	1
TAP	63	144	5
STR	63	240	6
SCR	63	240	6	96	96	1
STR	63	336	1
SCR	63	336	1	96	96	4
STR	64	48	4
SCR	64	48	4	96	96	7
TAP	64	144	7
TAP	64	192	0
TAP	64	240	1
TAP	64	288	2
STR	64	336	2
SI_	64	336	2	96	48	5
TAP	65	48	7
STR	65	96	7
SI_	65	96	7	96	48	4
TAP	65	192	3
TAP	65	240	2
TAP	65	288	1
STR	65	336	0
SI_	65	336	0	96	48	3
TAP	66	48	4
TAP	66	96	5
TAP	66	144	6
TAP	66	192	7
TAP	66	240	1
TAP	66	288	6
BST	66	336	0
SUR	66	336	0	96	336	3
TTP	68	0	0	C	1	M1
TTP	70	0	0	C	0	M1
TTP	70	144	6	E	0	M1
TTP	70	288	4	E	0	M1
TTP	70	312	3	E	0	M1
TTP	70	336	2	E	0	M1
TTP	72	0	0	C	0	M1
TTP	72	144	2	E	0	M1
TTP	72	288	4	E	0	M1
TTP	72	312	5	E	0	M1
TTP	72	336	6	E	0	M1
TTP	74	0	0	C	0	M1
TTP	74	144	6	E	0	M1
TTP	74	288	4	E	0	M1
TTP	74	312	3	E	0	M1
TTP	74	336	2	E	0	M1
TAP	76	0	4
TAP	76	144	4
STR	76	192	5
SCL	76	192	5	96	288	2
TAP	77	192	5
TAP	78	0	4
TAP	78	144	4
STR	78	192	5
SCL	78	192	5	96	288	2
TAP	79	192	5
TAP	80	0	3
TAP	80	144	3
STR	80	192	2
SCR	80	192	2	96	288	5
TAP	81	192	2
TAP	81	240	2
TAP	81	288	3
TAP	81	288	6
TAP	82	0	1
TAP	82	0	3
TAP	82	96	5
TAP	82	144	4
TAP	82	144	6
TAP	82	240	3
TAP	82	240	4
TAP	82	288	2
TAP	82	288	5
BRK	82	336	0
TTP	82	336	0	C	1	M1
TAP	83	144	0
TAP	83	144	1
TAP	83	192	2
STR	83	240	6
SV_	83	240	6	96	48	3
STR	83	240	7
SUR	83	240	7	96	48	3
TAP	83	288	5
TAP	83	336	6
TAP	83	336	7
TAP	84	48	1
TAP	84	48	5
TAP	84	144	0
TAP	84	144	1
TAP	84	192	2
STR	84	240	6
SV_	84	240	6	96	48	3
STR	84	240	7
SUR	84	240	7	96	48	3
TAP	84	288	5
TAP	84	336	6
TAP	84	336	7
TAP	85	48	1
TAP	85	48	5
STR	85	144	6
SCR	85	144	6	96	48	1
STR	85	192	2
SCR	85	192	2	96	48	5
TAP	85	240	6
TAP	85	288	2
STR	85	336	7
SI_	85	336	7	96	48	4
TAP	86	48	2
STR	86	96	2
SI_	86	96	2	96	48	6
TAP	86	192	3
STR	86	240	3
SI_	86	240	3	96	48	0
HLD	86	336	7	96
TAP	87	48	0
TAP	87	96	1
TAP	87	96	6
TAP	87	192	4
TAP	87	192	5
STR	87	264	3
SUL	87	264	3	96	48	7
STR	87	264	7
SV_	87	264	7	96	48	4
TAP	87	336	3
TAP	87	336	7
XTP	88	48	1
XTP	88	48	5
TAP	88	96	2
TAP	88	96	6
TAP	88	192	3
TAP	88	192	7
STR	88	264	1
SUL	88	264	1	96	48	5
STR	88	264	5
SV_	88	264	5	96	48	2
TAP	88	336	1
TAP	88	336	5
XTP	89	48	0
XTP	89	48	4
TAP	89	96	1
TAP	89	96	5
STR	89	192	7
SUR	89	192	7	96	48	3
STR	89	240	3
SV_	89	240	3	96	48	6
TAP	89	288	7
XTP	89	336	1
TAP	90	48	0
TAP	90	96	4
TAP	90	144	1
TAP	90	192	5
STR	90	240	2
SCL	90	240	2	96	48	7
STR	90	240	6
SCL	90	240	6	96	48	3
TAP	90	288	3
TAP	90	288	7
TAP	90	336	2
TAP	90	336	6
BRK	91	48	1
BRK	91	48	5
TAP	91	144	6
TAP	91	144	7
TAP	91	192	5
STR	91	240	0
SUL	91	240	0	96	48	4
STR	91	240	1
SV_	91	240	1	96	48	4
TAP	91	288	2
TAP	91	336	0
TAP	91	336	1
TAP	92	48	2
TAP	92	48	6
TAP	92	144	6
TAP	92	144	7
TAP	92	192	5
STR	92	240	0
SUL	92	240	0	96	48	4
STR	92	240	1
SV_	92	240	1	96	48	4
TAP	92	288	2
TAP	92	336	0
TAP	92	336	1
TAP	93	48	2
TAP	93	48	6
STR	93	144	1
SCL	93	144	1	96	48	6
STR	93	192	5
SCL	93	192	5	96	48	2
TAP	93	240	1
TAP	93	288	5
TAP	93	336	0
TAP	94	48	6
TAP	94	48	7
TAP	94	96	0
TAP	94	96	5
TAP	94	168	6
HLD	94	192	6	72
TAP	94	264	4
HLD	94	288	4	72
TAP	94	360	3
HLD	95	0	3	72
TAP	95	72	1
HLD	95	96	1	96
TAP	95	168	7
TAP	95	192	7
TAP	95	240	2
TAP	95	240	6
TAP	95	288	1
TAP	95	288	5
BRK	95	336	0
BRK	95	336	4
TAP	96	48	0
TAP	96	48	1
TAP	96	96	2
TAP	96	96	7
TAP	96	144	3
TAP	96	144	6
TAP	96	192	4
TAP	96	192	5
TAP	96	240	6
STR	96	288	6
SCL	96	288	6	96	48	3
STR	96	336	2
SCL	96	336	2	96	48	7
TAP	97	0	6
TAP	97	48	2
TAP	97	144	5
TAP	97	192	4
TAP	97	240	3
TAP	97	288	5
TAP	97	336	4
TAP	98	0	6
TAP	98	0	7
TAP	98	48	0
TAP	98	48	5
TAP	98	96	1
TAP	98	96	4
TAP	98	144	0
TAP	98	144	1
TAP	98	192	2
TAP	98	192	7
TAP	98	240	3
TAP	98	240	6
TAP	98	288	4
TAP	98	288	5
STR	98	336	2
SV_	98	336	2	96	48	5
STR	98	336	6
SUR	98	336	6	96	48	2
TAP	99	48	2
TAP	99	48	6
TAP	99	144	3
STR	99	144	7
SUR	99	144	7	96	48	3
SV_	99	144	7	96	48	4
STR	99	240	7
SCL	99	240	7	96	96	1
TTP	99	336	0	C	1	M1
XTP	100	96	0
XST	100	144	0
SI_	100	144	0	96	48	3
TAP	100	240	5
STR	100	288	6
SCR	100	288	6	96	48	1
TAP	101	0	3
HLD	101	48	4	144
TAP	101	192	2
TAP	101	216	3
TAP	101	240	2
TAP	101	264	3
TAP	101	288	2
TAP	101	312	3
TAP	101	336	2
TAP	101	360	3
BRK	102	0	1
TAP	102	96	7
STR	102	144	6
SI_	102	144	6	96	48	3
TAP	102	240	2
STR	102	288	1
SCL	102	288	1	96	48	6
TAP	103	0	4
HLD	103	48	3	96
TAP	103	144	5
TAP	103	168	4
TAP	103	192	5
TAP	103	240	7
BRK	103	288	1
TAP	103	288	5
TAP	104	0	3
TAP	104	0	6
TAP	104	48	2
TAP	104	96	3
TAP	104	144	1
TAP	104	144	4
STR	104	192	5
SCR	104	192	5	96	48	0
TAP	104	240	4
HLD	104	288	1	144
TAP	105	48	3
TAP	105	96	2
TAP	105	144	5
TAP	105	192	4
STR	105	240	7
SSR	105	240	7	96	384	3
TAP	105	288	6
BRK	105	336	7
TAP	107	48	0
TAP	107	48	4
TAP	107	96	1
TAP	107	96	5
TAP	107	192	3
TAP	107	192	7
TAP	107	240	1
STR	107	240	5
SV_	107	240	5	96	48	0
HLD	107	336	3	144
TAP	108	96	7
TAP	108	144	2
TAP	108	144	6
STR	108	240	1
SCL	108	240	1	96	96	6
STR	108	336	6
SCL	108	336	6	96	96	3
STR	109	48	3
SCL	109	48	3	96	96	0
TAP	109	144	0
TAP	109	192	7
TAP	109	240	6
TAP	109	288	5
STR	109	336	5
SI_	109	336	5	96	48	2
TAP	110	48	0
STR	110	96	0
SI_	110	96	0	96	48	3
TAP	110	192	4
TAP	110	240	5
TAP	110	288	6
STR	110	336	7
SI_	110	336	7	96	48	3
XTP	111	48	2
XTP	111	96	2
XTP	111	144	2
TAP	111	168	1
TAP	111	192	0
TAP	111	216	7
TAP	111	240	6
TAP	111	264	5
TAP	111	288	4
TAP	111	312	3
TAP	111	336	2
BST	111	336	6
SUR	111	336	6	96	528	2
SV_	111	336	6	96	528	3

T_REC_TAP	500
T_REC_BRK	17
T_REC_XTP	15
T_REC_HLD	21
T_REC_XHO	0
T_REC_STR	115
T_REC_BST	3
T_REC_XST	1
T_REC_TTP	45
T_REC_THO	0
T_REC_SLD	122
T_REC_ALL	839
T_NUM_TAP	676
T_NUM_BRK	20
T_NUM_HLD	21
T_NUM_SLD	122
T_NUM_ALL	839
T_JUDGE_TAP	696
T_JUDGE_HLD	86
T_JUDGE_SLD	122
T_JUDGE_ALL	904
TTM_EACHPAIRS	152
TTM_SCR_TAP	338000
TTM_SCR_BRK	52000
TTM_SCR_HLD	21000
TTM_SCR_SLD	183000
TTM_SCR_ALL	594000
TTM_SCR_S	574250
TTM_SCR_SS	592000
TTM_RAT_ACV	10033

