VERSION	0.00.00	1.03.00
FES_MODE	0
BPM_DEF	185.000	185.000	185.000	185.000
MET_DEF	4	4
RESOLUTION	384
CLK_DEF	384
COMPATIBLE_CODE	MA2

BPM	0	0	185.000
MET	0	0	4	4
MET	3	0	4	3
MET	4	192	4	2
MET	5	192	4	4
MET	13	192	4	6
MET	15	0	4	4

STR	3	0	0
SI_	3	0	0	96	48	4
TAP	3	96	5
TAP	3	144	5
TAP	3	240	7
STR	3	288	7
SI_	3	288	7	96	48	3
TAP	4	0	2
TAP	4	48	2
TAP	4	144	0
TAP	4	144	4
TAP	4	192	0
TAP	4	192	4
TAP	4	264	1
TAP	4	264	5
TAP	4	336	2
TAP	4	336	6
STR	5	192	6
SI_	5	192	6	96	48	2
TAP	5	288	1
HLD	5	336	1	96
TAP	6	48	4
TAP	6	144	3
TAP	6	144	6
TAP	6	240	1
TAP	6	240	4
TAP	6	336	7
STR	7	0	7
SCL	7	0	7	96	48	4
TAP	7	96	0
STR	7	144	0
SCR	7	144	0	96	48	3
TAP	7	240	4
STR	7	288	4
SI_	7	288	4	96	48	7
STR	8	0	3
SI_	8	0	3	96	48	0
TAP	8	96	6
HLD	8	144	6	96
TAP	8	240	4
HLD	8	288	4	96
TAP	9	0	3
TAP	9	96	2
TAP	9	96	5
STR	9	192	1
SI_	9	192	1	96	48	5
TAP	9	288	6
HLD	9	336	6	96
TAP	10	48	3
TAP	10	144	1
TAP	10	144	4
TAP	10	240	3
TAP	10	240	6
TAP	10	336	0
STR	11	0	0
SCR	11	0	0	96	48	3
TAP	11	96	7
STR	11	144	7
SCL	11	144	7	96	48	4
TAP	11	240	3
STR	11	288	3
SI_	11	288	3	96	48	0
STR	12	0	4
SI_	12	0	4	96	48	7
TAP	12	96	1
HLD	12	144	1	96
TAP	12	240	3
HLD	12	288	3	96
TAP	13	0	4
STR	13	96	2
SUR	13	96	2	96	384	4
TAP	13	96	5
TAP	13	144	2
TAP	13	144	5
TAP	15	0	3
HLD	15	0	5	96
TAP	15	96	2
HLD	15	192	2	96
TAP	15	192	4
TAP	15	288	5
TAP	16	0	4
HLD	16	0	5	96
TAP	16	96	3
HLD	16	192	2	96
TAP	16	192	3
TAP	16	288	4
TAP	17	0	3
HLD	17	0	6	96
TAP	17	96	2
HLD	17	192	1	96
TAP	17	192	4
TAP	17	288	5
TAP	18	0	4
HLD	18	0	6	96
TAP	18	96	3
HLD	18	192	1	96
TAP	18	192	3
TAP	18	288	4
TAP	19	0	3
HLD	19	0	5	96
TAP	19	96	2
HLD	19	192	2	96
TAP	19	192	4
TAP	19	288	5
TAP	20	0	4
HLD	20	0	5	96
TAP	20	96	3
HLD	20	192	2	96
TAP	20	192	3
TAP	20	288	4
XTP	21	0	3
XTP	21	0	5
XTP	21	72	2
XTP	21	72	4
XTP	21	144	1
XTP	21	144	3
XTP	21	192	1
XTP	21	192	3
TAP	21	288	0
TAP	21	288	7
TAP	21	336	0
TAP	21	336	7
TAP	22	48	3
TAP	22	48	4
TAP	22	96	3
TAP	22	96	4
BRK	22	192	2
BRK	22	192	5
BRK	22	240	2
BRK	22	240	5
TAP	23	0	3
TAP	23	0	4
TAP	23	48	2
TAP	23	96	3
TAP	23	144	1
TAP	23	192	5
TAP	23	240	4
TAP	23	288	6
TAP	23	336	1
HLD	24	0	1	72
HLD	24	72	2	72
TAP	24	144	3
TAP	24	192	3
TAP	24	192	4
STR	24	240	3
SI_	24	240	3	96	48	7
TAP	24	240	4
STR	24	336	6
SI_	24	336	6	96	48	2
STR	25	48	1
SI_	25	48	1	96	48	4
TAP	25	144	7
TAP	25	192	7
TAP	25	240	3
TAP	25	240	6
STR	25	336	2
SCR	25	336	2	96	48	5
TAP	26	48	7
STR	26	96	7
SI_	26	96	7	96	48	4
STR	26	192	3
SI_	26	192	3	96	48	0
XTP	26	288	4
XTP	27	0	0
TAP	27	0	4
TAP	27	48	5
TAP	27	96	4
TAP	27	144	6
TAP	27	192	2
TAP	27	240	3
TAP	27	288	1
TAP	27	336	6
STR	28	0	6
SI_	28	0	6	96	48	2
TAP	28	96	0
STR	28	144	0
SCR	28	144	0	96	48	3
TAP	28	240	4
STR	28	288	4
SCR	28	288	4	96	48	7
TAP	29	0	0
STR	29	48	0
SCR	29	48	0	96	48	3
TAP	29	144	4
STR	29	192	4
SCR	29	192	4	96	48	7
TAP	29	288	0
STR	29	336	0
SI_	29	336	0	96	48	4
TAP	30	48	5
TAP	30	96	5
STR	30	192	4
SI_	30	192	4	96	96	0
STR	30	192	6
SI_	30	192	6	96	96	2
TAP	31	96	2
TAP	31	96	4
TAP	31	168	5
TAP	31	192	4
TAP	31	240	4
TAP	31	288	3
HLD	31	288	6	96
TAP	32	0	2
TAP	32	96	3
TAP	32	96	5
TAP	32	168	2
TAP	32	192	3
TAP	32	240	3
HLD	32	288	1	96
TAP	32	288	4
TAP	33	0	3
TAP	33	96	2
TAP	33	96	4
TAP	33	168	5
TAP	33	192	4
TAP	33	240	4
TAP	33	288	3
HLD	33	288	6	96
HLD	34	0	2	96
HLD	34	96	0	96
HLD	34	192	7	96
HLD	34	288	5	96
TTP	35	0	0	C	1	M1
TAP	36	144	3
TAP	36	168	4
TAP	36	192	3
XTP	36	240	2
XTP	36	240	5
XTP	36	288	2
XTP	36	288	5
TAP	37	0	1
TAP	37	0	6
TAP	37	96	6
TAP	37	96	7
TAP	37	144	0
TAP	37	144	5
TAP	37	240	0
TAP	37	240	1
TAP	37	288	2
TAP	37	288	7
TAP	37	336	2
STR	37	336	7
SI_	37	336	7	96	48	3
BRK	38	48	0
BRK	38	96	0
TAP	38	288	1
TAP	38	288	6
STR	38	336	0
SI_	38	336	0	96	48	3
STR	38	336	7
SI_	38	336	7	96	48	4
XTP	39	48	0
XTP	39	48	7
TAP	39	144	2
TAP	39	144	5
TAP	39	192	2
TAP	39	192	5
TAP	39	288	1
TAP	39	288	6
STR	39	336	0
SI_	39	336	0	96	48	3
STR	39	336	7
SI_	39	336	7	96	48	4
XTP	40	48	0
XTP	40	48	7
TAP	40	144	2
TAP	40	144	5
TAP	40	192	2
TAP	40	192	5
TAP	40	288	6
HLD	40	336	6	96
TAP	41	48	4
STR	41	96	4
SI_	41	96	4	96	48	0
STR	41	192	7
SI_	41	192	7	96	48	2
TAP	41	288	1
STR	41	336	1
SI_	41	336	1	96	48	5
XTP	42	48	4
XTP	42	96	4
TAP	42	192	3
TAP	42	192	5
TAP	42	264	2
TAP	42	264	6
TAP	42	336	1
STR	42	336	7
SI_	42	336	7	96	48	3
TAP	43	48	2
HLD	43	96	2	96
TAP	43	192	4
TAP	43	264	1
TAP	43	264	5
STR	43	336	0
SI_	43	336	0	96	48	4
TAP	43	336	6
TAP	44	48	5
HLD	44	96	5	96
TAP	44	192	3
TAP	44	288	2
TAP	44	288	6
TAP	44	336	2
TAP	44	336	6
TAP	45	48	0
STR	45	96	0
SI_	45	96	0	96	48	4
TAP	45	192	0
STR	45	192	5
SCR	45	192	5	96	144	2
TTP	45	288	0	C	1	M1
TAP	46	144	3
TAP	46	144	4
TAP	46	192	3
TAP	46	192	4
TAP	46	288	1
TAP	46	288	6
STR	46	336	0
SI_	46	336	0	96	48	4
STR	46	336	7
SI_	46	336	7	96	48	3
XTP	47	48	0
XTP	47	48	7
TAP	47	144	2
TAP	47	144	5
TAP	47	192	2
TAP	47	192	5
TAP	47	288	1
TAP	47	288	6
STR	47	336	0
SI_	47	336	0	96	48	4
STR	47	336	7
SI_	47	336	7	96	48	3
XTP	48	48	0
XTP	48	48	7
TAP	48	144	2
TAP	48	144	5
TAP	48	192	2
TAP	48	192	5
TAP	48	288	1
HLD	48	336	1	96
TAP	49	48	3
STR	49	96	3
SCR	49	96	3	96	96	7
STR	49	192	7
SCR	49	192	7	96	96	3
STR	49	288	3
SCR	49	288	3	96	96	7
STR	50	0	7
SCR	50	0	7	96	96	3
TAP	50	96	3
TAP	50	192	7
TAP	50	288	1
TAP	50	288	5
STR	50	336	1
SI_	50	336	1	96	48	5
TAP	50	336	5
TAP	51	48	6
STR	51	96	6
SI_	51	96	6	96	48	2
STR	51	192	3
SI_	51	192	3	96	48	0
STR	51	288	7
SI_	51	288	7	96	48	4
XTP	52	0	0
XTP	52	48	0
TAP	52	144	1
STR	52	192	1
SCR	52	192	1	96	96	5
STR	52	288	5
SCR	52	288	5	96	96	1
STR	53	0	1
SCR	53	0	1	96	96	5
TAP	53	96	5
TAP	53	192	6
TAP	53	288	7
STR	53	336	7
SI_	53	336	7	96	48	3
STR	54	48	2
SI_	54	48	2	96	48	6
STR	54	144	5
SI_	54	144	5	96	48	1
STR	54	240	3
SI_	54	240	3	96	48	0
HLD	54	336	4	240
TAP	55	192	1
STR	55	240	1
SXL	55	240	1	96	240	4
HLD	55	336	5	144
TAP	56	192	7
STR	56	240	7
SI_	56	240	7	96	48	4
HLD	56	336	1	144
HLD	57	96	3	96
HLD	57	192	4	96
HLD	57	288	6	96
TAP	58	0	1
STR	58	96	3
SCL	58	96	3	96	48	0
STR	58	96	4
SCR	58	96	4	96	48	7
TAP	58	336	5
TAP	59	0	4
TAP	59	0	6
TAP	59	96	2
TAP	59	144	1
TAP	59	144	3
TAP	59	240	5
TAP	59	288	4
TAP	59	288	6
TAP	60	0	2
TAP	60	48	1
TAP	60	48	3
TAP	60	96	4
TAP	60	144	3
TAP	60	144	5
TAP	60	192	2
TAP	60	192	6
STR	60	240	2
SCR	60	240	2	96	336	5
STR	60	240	6
SCR	60	240	6	96	336	1
TAP	62	48	0
TAP	62	48	7
TAP	62	96	2
TAP	62	96	5
TAP	62	192	3
TAP	62	192	4
STR	62	240	1
SI_	62	240	1	96	48	4
STR	62	240	6
SI_	62	240	6	96	48	3
XTP	62	336	1
XTP	62	336	6
TAP	63	96	1
HLD	63	144	1	96
TAP	63	240	4
TAP	63	336	3
TAP	63	336	6
TAP	64	48	1
TAP	64	48	4
TAP	64	144	7
STR	64	192	7
SCL	64	192	7	96	48	4
TAP	64	288	0
STR	64	336	0
SCR	64	336	0	96	48	3
TAP	65	48	4
STR	65	96	4
SI_	65	96	4	96	48	7
STR	65	192	3
SI_	65	192	3	96	48	0
TAP	65	288	6
HLD	65	336	6	96
TAP	66	48	4
HLD	66	96	4	96
TAP	66	192	3
TAP	66	288	2
STR	66	288	5
SUL	66	288	5	96	384	3
TAP	66	336	2
TAP	66	336	5
TTP	68	0	0	C	1	M1
TTP	70	0	4	E	0	M1
THO	70	144	0	144	C	0	M1
TTP	70	288	0	E	0	M1
TTP	72	0	6	E	0	M1
THO	72	144	0	144	C	0	M1
TTP	72	288	2	E	0	M1
TTP	74	0	2	E	0	M1
THO	74	144	0	144	C	0	M1
TTP	74	288	6	E	0	M1
HLD	76	0	6	144
HLD	76	144	4	144
STR	76	288	3
SCR	76	288	3	96	96	6
TAP	77	192	2
HLD	78	0	1	144
HLD	78	144	3	144
STR	78	288	4
SCL	78	288	4	96	96	1
TAP	79	192	5
HLD	80	0	2	96
TAP	80	96	0
HLD	80	144	0	96
HLD	80	240	7	96
HLD	80	336	5	96
TAP	81	48	2
TAP	81	144	4
TAP	81	192	4
TAP	81	288	3
TAP	81	288	6
TAP	81	336	3
TAP	81	336	6
TAP	82	48	0
TAP	82	48	4
TAP	82	96	0
TAP	82	96	4
STR	82	192	2
SI_	82	192	2	96	48	7
STR	82	192	6
SI_	82	192	6	96	48	3
BRK	83	48	1
BRK	83	48	5
BRK	83	96	1
BRK	83	96	5
TAP	83	288	2
TAP	83	288	7
STR	83	336	0
SI_	83	336	0	96	48	5
STR	83	336	1
SI_	83	336	1	96	48	4
XTP	84	48	0
XTP	84	48	1
TAP	84	144	3
TAP	84	144	6
TAP	84	192	3
TAP	84	192	6
TAP	84	288	2
TAP	84	288	7
STR	84	336	0
SI_	84	336	0	96	48	5
STR	84	336	1
SI_	84	336	1	96	48	4
XTP	85	48	0
XTP	85	48	1
TAP	85	144	3
TAP	85	144	6
TAP	85	192	3
TAP	85	192	6
TAP	85	288	7
HLD	85	336	7	96
TAP	86	48	4
STR	86	96	4
SI_	86	96	4	96	48	1
STR	86	192	6
SI_	86	192	6	96	48	2
TAP	86	288	0
STR	86	336	0
SI_	86	336	0	96	48	3
XTP	87	48	7
XTP	87	96	7
TAP	87	192	0
TAP	87	192	6
TAP	87	264	1
TAP	87	264	5
TAP	87	336	2
STR	87	336	4
SI_	87	336	4	96	48	0
TAP	88	48	1
HLD	88	96	1	96
TAP	88	192	7
TAP	88	264	2
TAP	88	264	6
STR	88	336	3
SI_	88	336	3	96	48	7
TAP	88	336	5
TAP	89	48	6
HLD	89	96	6	96
TAP	89	192	0
TAP	89	288	1
TAP	89	288	5
TAP	89	336	1
TAP	89	336	5
TAP	90	48	7
STR	90	96	7
SI_	90	96	7	96	48	3
STR	90	192	2
SCL	90	192	2	96	144	5
TAP	90	192	7
TTP	90	288	0	C	1	M1
TAP	91	144	3
TAP	91	144	4
TAP	91	192	3
TAP	91	192	4
TAP	91	288	0
TAP	91	288	5
STR	91	336	6
SI_	91	336	6	96	48	2
STR	91	336	7
SI_	91	336	7	96	48	3
XTP	92	48	6
XTP	92	48	7
TAP	92	144	1
TAP	92	144	4
TAP	92	192	1
TAP	92	192	4
TAP	92	288	0
TAP	92	288	5
STR	92	336	6
SI_	92	336	6	96	48	2
STR	92	336	7
SI_	92	336	7	96	48	3
XTP	93	48	6
XTP	93	48	7
TAP	93	144	1
TAP	93	144	4
TAP	93	192	1
TAP	93	192	4
TAP	93	288	0
HLD	93	336	0	96
TAP	94	48	3
STR	94	96	3
SCR	94	96	3	96	96	7
STR	94	192	7
SCR	94	192	7	96	96	3
STR	94	288	3
SCR	94	288	3	96	96	7
STR	95	0	7
SCR	95	0	7	96	96	3
TAP	95	96	3
TAP	95	192	7
TAP	95	288	2
TAP	95	288	6
TAP	95	336	2
STR	95	336	6
SI_	95	336	6	96	48	2
TAP	96	48	1
STR	96	96	1
SI_	96	96	1	96	48	5
STR	96	192	4
SI_	96	192	4	96	48	7
STR	96	288	0
SI_	96	288	0	96	48	3
XTP	97	0	7
XTP	97	48	7
TAP	97	144	6
STR	97	192	6
SLL	97	192	6	96	96	2
STR	97	288	2
SLL	97	288	2	96	96	6
STR	98	0	6
SLL	98	0	6	96	96	2
TAP	98	96	2
TAP	98	192	1
TAP	98	288	0
STR	98	336	0
SI_	98	336	0	96	48	4
STR	99	48	5
SI_	99	48	5	96	48	1
STR	99	144	2
SI_	99	144	2	96	48	6
STR	99	240	4
SI_	99	240	4	96	48	7
HLD	99	336	3	240
TAP	100	192	6
STR	100	240	6
SXR	100	240	6	96	240	3
TAP	100	336	2
TAP	101	48	1
TAP	101	96	1
TAP	101	192	0
STR	101	240	0
SI_	101	240	0	96	48	3
HLD	101	336	6	144
HLD	102	96	4	96
HLD	102	192	3	96
HLD	102	288	1	96
TAP	103	0	6
STR	103	96	3
SCL	103	96	3	96	48	0
STR	103	96	4
SCR	103	96	4	96	48	7
TAP	103	336	2
TAP	104	0	1
TAP	104	0	3
TAP	104	96	6
TAP	104	144	5
TAP	104	144	7
TAP	104	240	1
TAP	104	288	0
TAP	104	288	2
TAP	105	0	5
TAP	105	48	4
TAP	105	48	6
TAP	105	96	3
TAP	105	144	2
TAP	105	144	4
TAP	105	192	1
TAP	105	192	5
STR	105	240	1
SCL	105	240	1	96	336	6
STR	105	240	5
SCL	105	240	5	96	336	2
TAP	107	48	0
TAP	107	48	7
TAP	107	96	2
TAP	107	96	5
TAP	107	192	3
TAP	107	192	4
STR	107	240	1
SI_	107	240	1	96	48	4
STR	107	240	6
SI_	107	240	6	96	48	3
XTP	107	336	1
XTP	107	336	6
TAP	108	96	5
HLD	108	144	5	96
TAP	108	240	0
TAP	108	336	2
TAP	108	336	7
TAP	109	48	0
HLD	109	48	5	96
TAP	109	144	3
STR	109	192	3
SCL	109	192	3	96	48	0
TAP	109	288	4
STR	109	336	4
SCR	109	336	4	96	48	7
TAP	110	48	0
STR	110	96	0
SI_	110	96	0	96	48	3
STR	110	192	7
SI_	110	192	7	96	48	4
TAP	110	288	2
HLD	110	336	2	96
TAP	111	48	0
TAP	111	96	0
STR	111	192	3
SCL	111	192	3	96	576	4
TAP	111	192	7
TTP	111	288	0	C	1	M1

T_REC_TAP	359
T_REC_BRK	10
T_REC_XTP	42
T_REC_HLD	60
T_REC_XHO	0
T_REC_STR	118
T_REC_BST	0
T_REC_XST	0
T_REC_TTP	11
T_REC_THO	3
T_REC_SLD	118
T_REC_ALL	721
T_NUM_TAP	530
T_NUM_BRK	10
T_NUM_HLD	63
T_NUM_SLD	118
T_NUM_ALL	721
T_JUDGE_TAP	540
T_JUDGE_HLD	142
T_JUDGE_SLD	118
T_JUDGE_ALL	800
TTM_EACHPAIRS	157
TTM_SCR_TAP	265000
TTM_SCR_BRK	26000
TTM_SCR_HLD	63000
TTM_SCR_SLD	177000
TTM_SCR_ALL	531000
TTM_SCR_S	514100
TTM_SCR_SS	530000
TTM_RAT_ACV	10018

