VERSION	0.00.00	1.03.00
FES_MODE	0
BPM_DEF	185.000	185.000	185.000	185.000
MET_DEF	4	4
RESOLUTION	384
CLK_DEF	384
COMPATIBLE_CODE	MA2

BPM	0	0	185.000
MET	0	0	4	4
MET	3	0	4	3
MET	4	192	4	2
MET	5	192	4	4
MET	13	192	4	6
MET	15	0	4	4

TAP	3	0	2
TAP	3	0	4
TAP	3	48	2
TAP	3	48	4
TAP	3	144	3
TAP	3	144	5
TAP	3	192	3
TAP	3	192	5
TAP	3	288	2
TAP	3	288	4
TAP	3	336	2
TAP	3	336	4
TAP	4	48	3
TAP	4	48	5
TAP	4	96	3
TAP	4	96	5
XTP	4	192	2
XTP	4	192	4
XTP	4	264	1
XTP	4	264	5
XTP	4	336	1
XTP	4	336	5
HLD	5	192	6	96
TAP	5	288	4
TAP	6	0	3
TAP	6	96	2
TAP	6	96	4
HLD	6	192	1	96
TAP	6	288	3
TAP	7	0	4
TAP	7	96	3
TAP	7	96	5
HLD	7	192	6	96
TAP	7	288	4
TAP	8	0	3
TAP	8	96	2
TAP	8	96	4
TAP	8	192	1
TAP	8	288	0
TAP	8	336	0
TAP	9	0	7
TAP	9	96	2
TAP	9	96	6
HLD	9	192	1	96
TAP	9	288	3
TAP	10	0	4
TAP	10	96	3
TAP	10	96	5
HLD	10	192	6	96
TAP	10	288	4
TAP	11	0	3
TAP	11	96	2
TAP	11	96	4
HLD	11	192	1	96
TAP	11	288	3
TAP	12	0	4
TAP	12	96	2
TAP	12	96	5
TAP	12	144	2
TAP	12	144	5
TAP	12	240	3
TAP	12	240	4
TAP	12	288	3
TAP	12	288	4
TAP	13	0	0
STR	13	0	7
SCL	13	0	7	96	384	0
TTP	13	96	0	C	1	M1
XHO	15	0	2	1344
XTP	15	0	4
TAP	15	96	4
TAP	15	192	4
TAP	15	288	4
TAP	16	0	3
TAP	16	96	3
TAP	16	192	3
TAP	16	288	3
TAP	17	0	4
TAP	17	96	4
TAP	17	192	4
TAP	17	288	3
TAP	18	0	5
TAP	18	96	3
TAP	18	192	4
TAP	18	288	4
TAP	19	0	3
HLD	19	0	5	672
TAP	19	96	3
TAP	19	192	3
TAP	19	288	3
TAP	20	0	4
TAP	20	96	4
TAP	20	192	4
TAP	20	288	4
XTP	21	0	3
XTP	21	0	5
XHO	21	72	2	72
XHO	21	72	6	72
XTP	21	192	2
XTP	21	192	6
TAP	21	288	7
HLD	21	336	7	96
TAP	22	48	0
TAP	22	96	0
XTP	22	192	1
XTP	22	192	6
XTP	22	240	1
XTP	22	240	6
TAP	23	0	5
TAP	23	96	4
TAP	23	96	6
TAP	23	192	7
TAP	23	288	0
TAP	23	288	1
TAP	24	0	2
TAP	24	96	1
TAP	24	96	3
TAP	24	192	0
TAP	24	288	6
TAP	24	288	7
TAP	25	0	5
TAP	25	96	4
TAP	25	96	6
TAP	25	192	7
TAP	25	288	0
TAP	25	288	1
TAP	26	0	2
TAP	26	96	3
TAP	26	144	3
TAP	26	192	4
TAP	26	288	3
TAP	26	288	5
TAP	27	0	2
TAP	27	96	1
TAP	27	96	3
TAP	27	192	0
TAP	27	288	6
TAP	27	288	7
TAP	28	0	5
TAP	28	96	4
TAP	28	96	6
TAP	28	192	7
TAP	28	288	0
TAP	28	288	1
TAP	29	0	2
TAP	29	96	1
TAP	29	96	3
TAP	29	192	0
TAP	29	288	6
TAP	29	288	7
TAP	30	0	5
TAP	30	96	4
TAP	30	144	4
TAP	30	192	3
TAP	30	288	2
TAP	30	288	5
TAP	30	336	2
TAP	30	336	5
TAP	31	48	3
TAP	31	48	4
TAP	31	96	3
TAP	31	96	4
STR	31	192	5
SCL	31	192	5	96	96	2
TAP	32	0	0
TAP	32	96	0
TAP	32	192	1
TAP	32	192	7
TAP	32	288	2
TAP	32	288	6
TAP	32	336	2
TAP	32	336	6
XTP	33	48	3
XTP	33	48	5
XTP	33	96	3
XTP	33	96	5
STR	33	192	2
SCR	33	192	2	96	96	5
TAP	34	0	7
TAP	34	96	7
TAP	34	192	0
TAP	34	192	6
TAP	34	288	1
STR	34	288	5
SCR	34	288	5	96	384	3
TTP	35	0	0	C	1	M1
TAP	36	288	3
TAP	36	288	4
HLD	37	0	2	96
HLD	37	0	6	96
HLD	37	144	1	96
HLD	37	144	5	96
HLD	37	288	2	96
HLD	37	288	6	96
XTP	38	48	1
XTP	38	48	5
XTP	38	96	1
XTP	38	96	5
TAP	38	288	0
TAP	38	288	1
STR	38	336	0
SI_	38	336	0	96	48	4
STR	38	336	1
SI_	38	336	1	96	48	3
XTP	39	144	2
XTP	39	144	5
XTP	39	192	2
XTP	39	192	5
TAP	39	288	0
TAP	39	288	1
STR	39	336	0
SI_	39	336	0	96	48	4
STR	39	336	1
SI_	39	336	1	96	48	3
XTP	40	144	2
XTP	40	144	5
XTP	40	192	2
XTP	40	192	5
TAP	40	288	6
HLD	40	336	6	96
TAP	41	48	4
HLD	41	96	4	96
HLD	41	192	3	96
TAP	41	288	1
TAP	41	336	1
TAP	42	48	0
TAP	42	48	7
TAP	42	96	0
TAP	42	96	7
HLD	42	192	1	72
HLD	42	264	2	72
TAP	42	336	3
TAP	43	48	4
TAP	43	96	4
HLD	43	192	6	72
HLD	43	264	5	72
TAP	43	336	4
TAP	44	48	3
TAP	44	96	3
TAP	44	192	2
TAP	44	192	4
TAP	44	288	1
TAP	44	288	5
TAP	44	336	1
TAP	44	336	5
TAP	45	48	0
HLD	45	96	0	96
STR	45	192	3
SI_	45	192	3	96	48	7
TAP	46	144	3
TAP	46	144	4
TAP	46	192	3
TAP	46	192	4
TAP	46	288	6
TAP	46	288	7
STR	46	336	6
SI_	46	336	6	96	48	4
STR	46	336	7
SI_	46	336	7	96	48	3
XTP	47	144	2
XTP	47	144	5
XTP	47	192	2
XTP	47	192	5
TAP	47	288	6
TAP	47	288	7
STR	47	336	6
SI_	47	336	6	96	48	4
STR	47	336	7
SI_	47	336	7	96	48	3
XTP	48	144	2
XTP	48	144	5
XTP	48	192	2
XTP	48	192	5
TAP	48	288	0
HLD	48	336	0	96
TAP	49	48	7
TAP	49	96	7
TAP	49	192	1
TAP	49	192	2
TAP	49	288	3
TAP	49	288	4
TAP	50	0	5
TAP	50	0	6
TAP	50	96	0
TAP	50	96	7
TAP	50	192	1
TAP	50	192	2
STR	50	288	3
SCL	50	288	3	96	96	0
STR	50	288	4
SCR	50	288	4	96	96	7
XTP	51	240	0
XTP	51	240	7
TAP	51	288	0
TAP	51	288	7
TAP	52	0	1
TAP	52	0	6
TAP	52	48	1
TAP	52	48	6
TAP	52	144	5
HLD	52	192	5	192
TAP	52	288	4
HLD	53	0	2	192
TAP	53	96	3
HLD	53	192	6	192
TAP	53	288	5
HLD	54	0	1	192
TAP	54	96	2
TAP	54	192	4
STR	54	288	4
SI_	54	288	4	96	96	1
SI_	54	288	4	96	96	7
TAP	55	192	0
HLD	55	288	0	288
TAP	56	96	3
TAP	56	192	3
TAP	56	288	4
HLD	57	0	5	288
TAP	57	96	4
TAP	57	192	3
TAP	57	288	2
TAP	58	0	1
STR	58	96	0
SCR	58	96	0	96	96	3
STR	58	96	7
SCL	58	96	7	96	96	4
XHO	59	0	2	96
XHO	59	0	5	96
HLD	59	144	3	96
HLD	59	144	6	96
HLD	59	288	1	96
HLD	59	288	4	96
TAP	60	48	2
TAP	60	48	5
TAP	60	96	2
TAP	60	96	5
TAP	60	192	7
STR	60	240	7
SCR	60	240	7	96	288	5
TAP	62	48	3
TAP	62	48	5
TAP	62	96	3
TAP	62	96	5
TAP	62	192	2
TAP	62	192	4
TAP	62	240	2
TAP	62	240	4
BRK	62	336	7
TAP	63	48	1
TAP	63	96	1
TAP	63	144	3
TAP	63	240	2
TAP	63	240	4
TAP	63	336	3
TAP	63	336	5
HLD	64	48	6	96
TAP	64	144	4
TAP	64	192	4
TAP	64	288	2
TAP	64	336	2
TAP	64	336	4
TAP	65	48	5
HLD	65	96	5	96
TAP	65	192	3
TAP	65	288	0
HLD	65	336	0	96
TAP	66	48	7
TAP	66	96	7
STR	66	192	3
SCL	66	192	3	96	96	0
STR	66	192	4
SCR	66	192	4	96	96	7
TTP	68	0	0	C	1	M1
TAP	70	0	3
TAP	70	144	4
HLD	70	288	5	1056
TAP	72	0	4
TAP	72	144	3
HLD	72	288	2	1056
TAP	74	0	3
TAP	74	144	4
HLD	74	288	5	288
TAP	76	0	3
HLD	76	192	2	288
TAP	76	192	4
TAP	77	96	3
TAP	77	192	4
TAP	78	0	4
TAP	78	192	3
HLD	78	192	5	288
TAP	79	96	4
TAP	79	192	3
TAP	80	0	3
HLD	80	192	2	288
TAP	80	192	4
TAP	81	96	3
TAP	81	192	1
TAP	81	192	4
TAP	81	288	1
TAP	81	288	4
HLD	82	0	3	96
HLD	82	0	6	96
HLD	82	144	1	96
HLD	82	144	4	96
HLD	82	288	2	96
HLD	82	288	5	96
XTP	83	48	1
XTP	83	48	6
XTP	83	96	1
XTP	83	96	6
TAP	83	288	3
TAP	83	288	4
STR	83	336	3
SI_	83	336	3	96	48	1
STR	83	336	4
SI_	83	336	4	96	48	0
TAP	84	144	2
TAP	84	144	7
TAP	84	192	2
TAP	84	192	7
TAP	84	288	3
TAP	84	288	4
STR	84	336	3
SI_	84	336	3	96	48	7
STR	84	336	4
SI_	84	336	4	96	48	6
TAP	85	144	0
TAP	85	144	5
TAP	85	192	0
TAP	85	192	5
TAP	85	288	1
HLD	85	336	1	96
TAP	86	48	3
HLD	86	96	3	96
HLD	86	192	4	96
TAP	86	288	6
TAP	86	336	6
TAP	87	48	0
TAP	87	48	7
TAP	87	96	0
TAP	87	96	7
HLD	87	192	6	72
HLD	87	264	5	72
TAP	87	336	4
TAP	88	48	3
TAP	88	96	2
TAP	88	96	4
HLD	88	192	1	72
HLD	88	264	2	72
TAP	88	336	3
TAP	89	48	4
TAP	89	96	3
TAP	89	96	5
TAP	89	192	2
TAP	89	192	6
TAP	89	288	1
TAP	89	288	7
TAP	89	336	1
TAP	89	336	7
TAP	90	48	6
HLD	90	96	6	96
STR	90	192	4
SI_	90	192	4	96	48	0
TAP	91	144	2
TAP	91	144	5
TAP	91	192	2
TAP	91	192	5
TAP	91	288	3
TAP	91	288	4
STR	91	336	3
SI_	91	336	3	96	48	1
STR	91	336	4
SI_	91	336	4	96	48	0
TAP	92	144	2
TAP	92	144	7
TAP	92	192	2
TAP	92	192	7
TAP	92	288	3
TAP	92	288	4
STR	92	336	3
SI_	92	336	3	96	48	7
STR	92	336	4
SI_	92	336	4	96	48	6
TAP	93	144	0
TAP	93	144	5
TAP	93	192	0
TAP	93	192	5
TAP	93	288	7
HLD	93	336	7	96
TAP	94	48	0
TAP	94	96	0
TAP	94	192	5
TAP	94	192	6
TAP	94	288	3
TAP	94	288	4
TAP	95	0	1
TAP	95	0	2
TAP	95	96	0
TAP	95	96	7
TAP	95	192	5
TAP	95	192	6
STR	95	288	3
SCL	95	288	3	96	96	0
STR	95	288	4
SCR	95	288	4	96	96	7
XTP	96	240	0
XTP	96	240	7
TAP	96	288	0
TAP	96	288	7
TAP	97	0	1
TAP	97	0	6
TAP	97	48	1
TAP	97	48	6
TAP	97	144	2
HLD	97	192	2	192
TAP	97	288	3
HLD	98	0	5	192
TAP	98	96	4
HLD	98	192	1	192
TAP	98	288	2
HLD	99	0	6	192
TAP	99	96	5
TAP	99	192	3
STR	99	288	3
SV_	99	288	3	96	96	0
SV_	99	288	3	96	96	6
TAP	100	192	7
STR	100	288	4
SI_	100	288	4	96	96	1
STR	100	288	5
SI_	100	288	5	96	96	0
STR	101	192	0
SI_	101	192	0	96	96	5
STR	101	192	1
SI_	101	192	1	96	96	4
TAP	102	96	7
TAP	102	192	6
TAP	102	288	5
TAP	103	0	4
TAP	103	96	3
TAP	103	192	2
TAP	103	192	5
HLD	104	0	1	96
HLD	104	0	6	96
HLD	104	144	2	96
HLD	104	144	7	96
HLD	104	288	0	96
HLD	104	288	5	96
TAP	105	48	1
TAP	105	48	6
TAP	105	96	1
TAP	105	96	6
TAP	105	192	0
STR	105	240	0
SCL	105	240	0	96	288	2
TAP	107	48	2
TAP	107	48	4
TAP	107	96	2
TAP	107	96	4
TAP	107	192	3
TAP	107	192	5
TAP	107	240	3
TAP	107	240	5
BRK	107	336	0
TAP	108	48	6
TAP	108	96	6
TAP	108	144	4
TAP	108	240	3
TAP	108	240	5
TAP	108	336	2
TAP	108	336	4
HLD	109	48	1	96
TAP	109	144	3
TAP	109	192	3
TAP	109	288	5
TAP	109	336	3
TAP	109	336	5
TAP	110	48	2
HLD	110	96	2	96
TAP	110	192	4
TAP	110	288	7
HLD	110	336	7	96
TAP	111	48	0
TAP	111	96	0
TAP	111	192	3
STR	111	192	4
SCR	111	192	4	96	672	3
TTP	111	288	0	C	1	M1

T_REC_TAP	380
T_REC_BRK	2
T_REC_XTP	47
T_REC_HLD	70
T_REC_XHO	5
T_REC_STR	39
T_REC_BST	0
T_REC_XST	0
T_REC_TTP	4
T_REC_THO	0
T_REC_SLD	41
T_REC_ALL	588
T_NUM_TAP	470
T_NUM_BRK	2
T_NUM_HLD	75
T_NUM_SLD	41
T_NUM_ALL	588
T_JUDGE_TAP	472
T_JUDGE_HLD	268
T_JUDGE_SLD	41
T_JUDGE_ALL	781
TTM_EACHPAIRS	167
TTM_SCR_TAP	235000
TTM_SCR_BRK	5200
TTM_SCR_HLD	75000
TTM_SCR_SLD	61500
TTM_SCR_ALL	376700
TTM_SCR_S	365250
TTM_SCR_SS	376500
TTM_RAT_ACV	10005

