VERSION	0.00.00	1.03.00
FES_MODE	0
BPM_DEF	185.000	185.000	185.000	185.000
MET_DEF	4	4
RESOLUTION	384
CLK_DEF	384
COMPATIBLE_CODE	MA2

BPM	0	0	185.000
MET	0	0	4	4
MET	3	0	4	3
MET	4	192	4	2
MET	5	192	4	4
MET	13	192	4	6
MET	15	0	4	4

TAP	3	0	2
TAP	3	96	3
TAP	3	192	4
TAP	3	288	5
TAP	4	0	3
TAP	4	0	4
TAP	4	96	3
TAP	4	96	4
BRK	4	192	2
BRK	4	192	5
TAP	5	192	1
TAP	5	288	1
TAP	6	0	0
TAP	6	0	1
TAP	6	192	6
TAP	6	288	6
TAP	7	0	6
TAP	7	0	7
TAP	7	192	1
TAP	7	288	1
TAP	8	0	0
TAP	8	0	1
TAP	8	192	7
TAP	8	288	7
TAP	9	0	0
TAP	9	0	6
TAP	9	192	5
TAP	9	288	5
TAP	10	0	4
TAP	10	0	5
TAP	10	192	2
TAP	10	288	2
TAP	11	0	2
TAP	11	0	3
TAP	11	192	5
TAP	11	288	5
TAP	12	0	4
TAP	12	0	5
TAP	12	192	3
TAP	12	288	3
TAP	13	0	4
TAP	13	96	4
HLD	13	192	3	384
HLD	13	192	4	384
TTP	15	0	1	B	0	L1
TTP	15	192	2	B	0	L1
TTP	16	0	3	B	0	L1
TTP	16	192	4	B	0	L1
TTP	17	0	5	B	0	L1
TTP	17	192	6	B	0	L1
TTP	18	0	7	B	0	L1
TTP	18	192	0	B	0	L1
TTP	19	0	2	B	0	L1
TTP	19	0	3	B	0	L1
TTP	19	192	4	B	0	L1
TTP	19	192	5	B	0	L1
TTP	20	0	6	B	0	L1
TTP	20	0	7	B	0	L1
TTP	20	192	0	B	0	L1
TTP	20	192	1	B	0	L1
TTP	21	0	2	B	0	L1
TTP	21	0	3	B	0	L1
TTP	21	192	4	B	0	L1
TTP	21	192	5	B	0	L1
TTP	22	0	0	C	1	L1
XHO	23	0	1	96
TAP	23	96	0
TAP	23	192	0
HLD	24	0	6	96
TAP	24	96	7
TAP	24	192	7
HLD	25	0	1	96
TAP	25	96	0
TAP	25	192	0
HLD	26	0	6	96
HLD	26	0	7	96
TAP	26	192	6
TAP	26	192	7
HLD	27	0	5	96
TAP	27	96	4
TAP	27	192	4
HLD	28	0	2	96
TAP	28	96	3
TAP	28	192	3
HLD	29	0	5	96
TAP	29	96	4
TAP	29	192	4
TAP	30	0	3
TAP	30	0	4
TAP	30	96	3
TAP	30	96	4
TAP	30	192	3
TAP	30	192	4
XTP	30	288	2
XST	30	336	2
SCL	30	336	2	96	192	7
STR	32	0	6
SCL	32	0	6	96	192	3
STR	33	0	2
SCL	33	0	2	96	192	7
TAP	34	0	6
TAP	34	96	6
TAP	34	192	0
TAP	34	192	7
TTP	35	0	0	C	1	L1
TAP	36	192	3
TAP	36	288	4
TAP	37	0	3
TAP	37	0	4
TAP	37	96	3
TAP	37	96	4
TAP	37	192	2
TAP	37	192	5
BRK	37	288	1
BRK	37	288	6
XTP	38	288	0
XTP	38	288	7
TAP	39	0	1
TAP	39	96	1
TAP	39	192	0
TAP	39	192	1
TAP	39	288	0
TAP	39	288	1
TAP	40	0	6
TAP	40	96	6
TAP	40	192	6
TAP	40	192	7
TAP	40	288	6
TAP	40	288	7
TAP	41	0	5
TAP	41	96	5
TAP	41	192	4
TAP	41	288	4
TAP	42	0	3
TAP	42	96	3
TAP	42	192	2
TAP	42	192	4
TAP	43	0	1
TAP	43	96	1
TAP	43	192	0
TAP	43	192	1
TAP	44	0	6
TAP	44	96	6
TAP	44	192	6
TAP	44	192	7
TAP	45	0	0
TAP	45	96	0
TAP	45	192	0
TAP	45	192	7
XTP	45	288	1
XTP	45	288	6
XTP	46	192	3
XTP	46	192	4
XTP	46	288	3
XTP	46	288	4
TAP	47	0	5
TAP	47	96	5
TAP	47	192	4
TAP	47	192	5
TAP	47	288	4
TAP	47	288	5
TAP	48	0	2
TAP	48	96	2
TAP	48	192	2
TAP	48	192	3
TAP	48	288	2
TAP	48	288	3
TAP	49	0	1
TAP	49	96	1
TAP	49	192	0
TAP	49	288	0
TAP	50	0	7
TAP	50	96	7
TAP	50	192	6
TAP	50	288	6
STR	51	0	5
SCR	51	0	5	96	192	0
STR	52	0	1
SCR	52	0	1	96	192	4
TAP	53	0	5
TAP	53	96	4
TAP	53	192	3
TAP	53	288	2
TAP	54	0	1
TAP	54	96	0
TAP	54	192	7
TAP	54	288	6
STR	55	0	5
SCR	55	0	5	96	192	0
STR	56	0	1
SUR	56	0	1	96	192	5
STR	57	0	6
SUL	57	0	6	96	192	2
STR	58	0	1
SCR	58	0	1	96	192	4
TAP	59	0	5
TAP	59	96	5
TAP	59	192	6
TAP	59	288	6
TAP	60	0	7
TAP	60	96	7
TAP	60	192	0
TAP	60	288	0
HLD	61	0	1	432
HLD	61	0	6	432
XTP	62	192	0
XTP	62	192	7
XTP	62	240	0
XTP	62	240	7
XTP	63	0	1
XTP	63	96	1
XTP	63	192	0
XTP	63	192	1
TAP	64	0	6
TAP	64	96	6
TAP	64	192	6
TAP	64	192	7
TAP	65	0	5
TAP	65	96	5
TAP	65	192	4
TAP	65	192	5
TAP	66	0	2
TAP	66	96	2
TAP	66	192	3
TAP	66	192	4
XTP	66	288	2
XTP	66	288	5
XTP	66	336	2
XTP	66	336	5
STR	68	0	7
SCL	68	0	7	96	384	2
STR	70	0	0
SCR	70	0	0	96	384	5
STR	72	0	7
SCL	72	0	7	96	384	2
XST	74	0	0
SCR	74	0	0	96	384	5
HLD	76	0	6	192
HLD	76	192	7	192
HLD	77	0	0	192
XTP	77	192	1
HLD	78	0	2	192
HLD	78	192	3	192
HLD	79	0	4	192
TAP	79	192	5
HLD	80	0	6	96
HLD	80	0	7	96
TAP	80	192	6
TAP	80	192	7
HLD	81	0	0	96
HLD	81	0	1	96
TAP	81	192	0
TAP	81	192	1
TAP	81	288	0
TAP	81	288	1
TAP	82	0	2
TAP	82	96	3
TAP	82	192	3
TAP	82	192	4
BRK	82	288	2
BRK	82	288	5
XTP	83	288	0
XTP	83	288	7
TAP	84	0	6
TAP	84	96	6
TAP	84	96	7
TAP	84	192	6
TAP	84	288	6
TAP	84	288	7
TAP	85	0	1
TAP	85	96	0
TAP	85	96	1
TAP	85	192	1
TAP	85	288	0
TAP	85	288	1
TAP	86	0	2
TAP	86	96	2
TAP	86	192	3
TAP	86	288	3
TAP	87	0	4
TAP	87	96	4
TAP	87	192	3
TAP	87	192	5
TAP	88	0	6
TAP	88	96	6
TAP	88	192	6
TAP	88	192	7
TAP	89	0	1
TAP	89	96	1
TAP	89	192	0
TAP	89	192	1
TAP	90	0	7
TAP	90	96	7
TAP	90	192	0
TAP	90	192	7
XTP	90	288	1
XTP	90	288	6
XTP	91	192	3
XTP	91	192	4
XTP	91	288	3
XTP	91	288	4
TAP	92	0	2
TAP	92	96	2
TAP	92	96	3
TAP	92	192	2
TAP	92	288	2
TAP	92	288	3
TAP	93	0	5
TAP	93	96	4
TAP	93	96	5
TAP	93	192	5
TAP	93	288	4
TAP	93	288	5
TAP	94	0	6
TAP	94	96	6
TAP	94	192	7
TAP	94	288	7
TAP	95	0	0
TAP	95	96	0
TAP	95	192	1
TAP	95	288	1
STR	96	0	2
SCL	96	0	2	96	192	7
STR	97	0	6
SCL	97	0	6	96	192	3
TAP	98	0	2
TAP	98	96	3
TAP	98	192	4
TAP	98	288	5
TAP	99	0	6
TAP	99	96	7
TAP	99	192	0
TAP	99	288	1
STR	100	0	2
SCL	100	0	2	96	192	7
STR	101	0	6
SUL	101	0	6	96	192	2
STR	102	0	1
SUR	102	0	1	96	192	5
STR	103	0	6
SCL	103	0	6	96	192	3
TAP	104	0	2
TAP	104	96	2
TAP	104	192	1
TAP	104	288	1
TAP	105	0	0
TAP	105	96	0
TAP	105	192	7
TAP	105	288	7
HLD	106	0	1	432
HLD	106	0	6	432
XTP	107	192	0
XTP	107	192	7
XTP	107	240	0
XTP	107	240	7
XTP	108	0	6
XTP	108	96	6
XTP	108	192	6
XTP	108	192	7
TAP	109	0	1
TAP	109	96	1
TAP	109	192	0
TAP	109	192	1
TAP	110	0	2
TAP	110	96	2
TAP	110	192	2
TAP	110	192	3
TAP	111	0	4
TAP	111	96	4
TAP	111	192	4
XTP	111	288	3
XTP	111	288	4
XHO	111	336	3	624
XHO	111	336	4	624

T_REC_TAP	242
T_REC_BRK	6
T_REC_XTP	40
T_REC_HLD	23
T_REC_XHO	3
T_REC_STR	17
T_REC_BST	0
T_REC_XST	2
T_REC_TTP	22
T_REC_THO	0
T_REC_SLD	19
T_REC_ALL	374
T_NUM_TAP	323
T_NUM_BRK	6
T_NUM_HLD	26
T_NUM_SLD	19
T_NUM_ALL	374
T_JUDGE_TAP	329
T_JUDGE_HLD	126
T_JUDGE_SLD	19
T_JUDGE_ALL	474
TTM_EACHPAIRS	77
TTM_SCR_TAP	161500
TTM_SCR_BRK	15600
TTM_SCR_HLD	26000
TTM_SCR_SLD	28500
TTM_SCR_ALL	231600
TTM_SCR_S	224100
TTM_SCR_SS	231000
TTM_RAT_ACV	10025

