VERSION	0.00.00	1.03.00
FES_MODE	0
BPM_DEF	185.000	185.000	185.000	185.000
MET_DEF	4	4
RESOLUTION	384
CLK_DEF	384
COMPATIBLE_CODE	MA2

BPM	0	0	185.000
MET	0	0	4	4
MET	3	0	4	3
MET	4	192	4	2
MET	5	192	4	4
MET	13	192	4	6
MET	15	0	4	4

TAP	5	288	1
TAP	6	288	1
TAP	7	288	0
TAP	8	288	0
TAP	9	288	7
TAP	10	288	7
TAP	11	288	6
STR	12	288	6
SI_	12	288	6	96	288	3
TAP	15	0	3
TAP	15	192	3
TAP	16	0	3
TAP	17	0	2
TAP	17	192	2
TAP	18	0	2
TAP	19	0	1
TAP	19	192	1
TAP	20	0	1
TAP	21	0	0
HLD	21	192	0	192
TAP	23	0	7
TAP	23	192	7
TAP	24	0	7
TAP	25	0	6
TAP	25	192	6
TAP	26	0	6
TAP	27	0	5
TAP	27	192	5
TAP	28	0	5
TAP	29	0	4
TAP	29	192	4
XTP	30	0	3
XTP	30	0	4
XTP	30	192	3
XTP	30	192	4
XST	31	0	3
SI_	31	0	3	96	288	0
STR	33	0	7
SI_	33	0	7	96	288	4
XST	35	0	3
SI_	35	0	3	96	288	0
HLD	37	0	7	288
XTP	38	288	0
XTP	39	0	0
TAP	39	288	1
TAP	40	0	1
TAP	40	288	2
TAP	41	0	2
TAP	41	288	3
TAP	42	0	3
TAP	42	288	4
TAP	43	0	4
TAP	43	288	5
TAP	44	0	5
TAP	44	288	6
TAP	45	0	6
XTP	45	288	0
XTP	45	288	7
XTP	46	0	0
XTP	46	0	7
TAP	46	288	6
TAP	47	0	6
TAP	47	288	5
TAP	48	0	5
TAP	48	288	4
TAP	49	0	4
TAP	49	288	3
TAP	50	0	3
TAP	50	288	2
TAP	51	0	2
TAP	51	288	1
TAP	52	0	1
TAP	52	288	0
TAP	53	0	0
TAP	53	288	7
TAP	54	0	7
TAP	54	288	0
STR	55	0	0
SI_	55	0	0	96	288	3
STR	57	0	7
SI_	57	0	7	96	288	4
TAP	59	0	0
TAP	59	192	0
TAP	60	0	7
STR	60	192	6
SI_	60	192	6	96	288	2
XTP	63	96	0
XTP	63	288	1
XTP	64	96	2
XTP	64	288	3
XTP	65	96	4
XTP	65	288	5
XTP	66	96	6
XST	66	288	7
SI_	66	288	7	96	288	3
HLD	70	0	2	288
HLD	72	0	3	288
HLD	74	0	4	288
TTP	76	0	5	B	0	L1
TTP	77	0	6	B	0	L1
TTP	78	0	7	B	0	L1
TTP	79	0	0	B	0	L1
TTP	80	0	1	B	0	L1
TTP	81	0	2	B	0	L1
THO	82	0	0	288	C	1	L1
XTP	83	288	0
TAP	84	0	0
TAP	84	96	0
TAP	84	288	1
TAP	85	0	1
TAP	85	96	1
TAP	85	288	2
TAP	86	0	2
TAP	86	96	2
TAP	86	288	3
TAP	87	0	3
TAP	87	96	3
TAP	87	96	4
TAP	87	288	4
TAP	88	0	4
TAP	88	96	4
TAP	88	288	5
TAP	89	0	5
TAP	89	96	5
TAP	89	288	6
TAP	90	0	6
TAP	90	96	6
BRK	90	288	7
TAP	91	288	7
TAP	92	0	7
TAP	92	96	0
TAP	92	96	7
TAP	92	288	6
TAP	93	0	6
TAP	93	96	6
TAP	93	96	7
TAP	93	288	5
TAP	94	0	5
TAP	94	96	4
TAP	94	96	5
TAP	94	288	3
TAP	95	0	3
TAP	95	96	3
TAP	95	96	4
TAP	95	288	2
TAP	96	0	2
TAP	96	96	2
TAP	96	96	3
TAP	96	288	1
TAP	97	0	1
TAP	97	96	0
TAP	97	96	1
TAP	97	288	7
TAP	98	0	7
TAP	98	96	7
XTP	98	288	0
XTP	99	0	0
STR	100	0	1
SI_	100	0	1	96	288	5
STR	102	0	6
SI_	102	0	6	96	288	2
TAP	104	0	1
TAP	104	192	2
TAP	105	0	3
STR	105	192	4
SI_	105	192	4	96	288	7
TAP	108	96	6
TAP	108	288	6
TAP	109	96	7
TAP	109	288	7
TAP	110	96	0
TAP	110	288	0
TAP	111	96	1
STR	111	288	1
SI_	111	288	1	96	288	5

T_REC_TAP	118
T_REC_BRK	1
T_REC_XTP	20
T_REC_HLD	5
T_REC_XHO	0
T_REC_STR	9
T_REC_BST	0
T_REC_XST	3
T_REC_TTP	6
T_REC_THO	1
T_REC_SLD	12
T_REC_ALL	175
T_NUM_TAP	156
T_NUM_BRK	1
T_NUM_HLD	6
T_NUM_SLD	12
T_NUM_ALL	175
T_JUDGE_TAP	157
T_JUDGE_HLD	34
T_JUDGE_SLD	12
T_JUDGE_ALL	203
TTM_EACHPAIRS	11
TTM_SCR_TAP	78000
TTM_SCR_BRK	2600
TTM_SCR_HLD	6000
TTM_SCR_SLD	18000
TTM_SCR_ALL	104600
TTM_SCR_S	101400
TTM_SCR_SS	104500
TTM_RAT_ACV	10009

