VERSION	0.00.00	1.05.00
FES_MODE	0
BPM_DEF	187.000	187.000	187.000	187.000
MET_DEF	4	4
RESOLUTION	384
CLK_DEF	384
COMPATIBLE_CODE	MA2

BPM	0	0	187.000
MET	0	0	4	4

NMTAP	1	0	2
NMSTR	1	0	6
NMSI_	1	0	6	96	48	3
NMTAP	1	96	6
NMTAP	1	96	7
NMTAP	1	192	0
NMTAP	1	240	2
NMSTR	1	240	3
NMSI_	1	240	3	96	48	7
NMSTR	1	336	1
NMSCR	1	336	1	96	48	4
NMSTR	2	48	6
NMSCR	2	48	6	96	48	1
NMSTR	2	144	3
NMSCR	2	144	3	96	48	6
NMTAP	2	240	0
NMTAP	2	288	0
NMTAP	3	0	1
NMSTR	3	0	7
NMSI_	3	0	7	96	48	3
NMTAP	3	96	0
NMTAP	3	96	7
NMTAP	3	192	2
NMSTR	3	240	4
NMSI_	3	240	4	96	48	1
NMTAP	3	240	5
NMSTR	3	336	7
NMSI_	3	336	7	96	48	4
NMSTR	4	48	2
NMSI_	4	48	2	96	48	7
NMTAP	4	144	3
NMTAP	4	240	1
NMTAP	4	240	5
NMTAP	4	288	0
NMTAP	4	312	7
NMTAP	4	336	0
NMTAP	4	360	7
NMSTR	5	0	1
NMSI_	5	0	1	96	48	4
NMTAP	5	96	0
NMTAP	5	96	1
NMTAP	5	192	7
NMSTR	5	240	4
NMSI_	5	240	4	96	48	0
NMTAP	5	240	5
NMSTR	5	336	6
NMSCL	5	336	6	96	48	3
NMSTR	6	48	1
NMSCL	6	48	1	96	48	6
NMSTR	6	144	4
NMSCL	6	144	4	96	48	1
NMTAP	6	240	7
NMTAP	6	288	7
NMSTR	7	0	0
NMSV_	7	0	0	96	48	3
NMSTR	7	0	6
NMSV_	7	0	6	96	48	3
NMTAP	7	96	0
NMTAP	7	96	6
NMTAP	7	192	1
NMTAP	7	192	5
EXTAP	7	240	1
EXTAP	7	240	5
NMHLD	7	336	2	48
NMHLD	7	336	6	48
NMHLD	8	48	3	48
NMHLD	8	48	7	48
NMSTR	8	144	0
NMSI_	8	144	0	96	48	6
NMSTR	8	144	4
NMSI_	8	144	4	96	48	2
CNSI_	8	288	2	0	24	7
CNSI_	8	288	6	0	24	3
BRSTR	9	0	0
NMSI_	9	0	0	96	48	3
BRSTR	9	0	4
NMSI_	9	0	4	96	48	7
NMTAP	9	192	6
NMTAP	9	288	6
NMTAP	9	336	4
NMTAP	10	0	4
NMTAP	10	0	5
NMTAP	10	96	5
NMTAP	10	192	5
NMTAP	10	288	5
NMTAP	10	336	3
NMTAP	11	0	3
NMTAP	11	0	4
NMTAP	11	96	4
NMTAP	11	192	4
NMTAP	11	288	4
NMTAP	11	336	2
NMTAP	12	0	2
NMTAP	12	0	3
NMTAP	12	96	3
NMSTR	12	192	3
NMSI_	12	192	3	96	48	0
NMSTR	12	192	7
NMSI_	12	192	7	96	48	4
EXTAP	12	288	3
EXTAP	12	288	7
NMSTR	13	0	5
NMSCL	13	0	5	96	48	2
NMTAP	13	96	0
NMTAP	13	192	1
NMSTR	13	240	1
NMSI_	13	240	1	96	48	4
NMTAP	13	288	0
NMTAP	13	336	1
NMTAP	14	48	7
NMSTR	14	96	7
NMSI_	14	96	7	96	48	3
NMTAP	14	192	0
NMTAP	14	240	0
NMTAP	14	288	1
NMTAP	14	288	4
NMSTR	15	0	2
NMSI_	15	0	2	96	48	5
NMTAP	15	48	2
NMTAP	15	96	7
NMTAP	15	192	6
NMSTR	15	240	6
NMSCL	15	240	6	96	144	0
NMTAP	15	288	7
NMTAP	15	336	6
NMTAP	16	48	7
NMTAP	16	96	7
NMTAP	16	192	1
NMTAP	16	192	5
NMTAP	16	240	2
NMTAP	16	264	4
NMTAP	16	288	2
NMTAP	16	312	4
NMTAP	16	336	2
NMTAP	16	360	4
NMSTR	17	0	0
NMSF_	17	0	0	96	48	4
BRTAP	17	96	0
NMTAP	17	192	1
NMHLD	17	192	7	96
NMTAP	17	288	4
NMHLD	17	336	3	96
NMTAP	17	336	5
NMTAP	18	48	1
NMSTR	18	96	0
NMSI_	18	96	0	96	48	4
NMTAP	18	144	7
NMHLD	18	192	6	96
NMTAP	18	288	3
NMHLD	18	336	2	96
NMTAP	18	336	4
NMTAP	19	48	3
NMSTR	19	96	1
NMSCL	19	96	1	96	48	6
NMSTR	19	144	6
NMSCR	19	144	6	96	48	1
NMTAP	19	336	2
NMTAP	19	336	4
NMSTR	20	48	7
NMSI_	20	48	7	96	48	4
NMSTR	20	96	4
NMSI_	20	96	4	96	48	1
NMTAP	20	144	2
NMSTR	20	192	0
NMSI_	20	192	0	96	48	3
NMSI_	20	192	0	96	48	5
EXTAP	20	288	0
NMSTR	21	0	4
NMSCR	21	0	4	96	48	7
NMTAP	21	96	3
NMTAP	21	96	4
NMSTR	21	192	1
NMSCR	21	192	1	96	48	4
NMTAP	21	288	0
NMTAP	21	288	1
NMHLD	21	336	6	96
NMTAP	22	48	7
NMSTR	22	96	0
NMSXL	22	96	0	96	96	0
NMTAP	22	96	6
NMSTR	22	192	7
NMSXR	22	192	7	96	96	7
NMTAP	23	0	0
NMTAP	23	48	1
NMTAP	23	96	7
NMTAP	23	144	6
NMTAP	23	192	1
NMTAP	23	192	5
NMTAP	23	240	3
NMTAP	23	288	4
NMTAP	23	336	2
NMSTR	23	336	6
NMSI_	23	336	6	96	48	3
NMSTR	24	48	1
NMSUR	24	48	1	96	144	4
NMTAP	24	96	1
NMTAP	24	144	0
NMTAP	24	288	7
NMHLD	25	0	4	96
NMHLD	25	0	6	96
NMTAP	25	144	4
NMTAP	25	144	6
NMTAP	25	192	5
NMTAP	25	240	4
NMTAP	25	288	3
NMSTR	25	336	6
NMSI_	25	336	6	96	48	2
NMSTR	26	48	2
NMSI_	26	48	2	96	48	6
NMSTR	26	144	6
NMSI_	26	144	6	96	48	2
NMTAP	26	240	0
NMTAP	26	288	0
NMHLD	27	0	1	96
NMHLD	27	0	3	96
NMTAP	27	144	2
NMTAP	27	192	1
NMTAP	27	192	3
NMTAP	27	288	0
NMSTR	27	336	1
NMSI_	27	336	1	96	48	5
NMTAP	27	336	7
NMSTR	28	48	6
NMSI_	28	48	6	96	48	0
NMSTR	28	144	2
NMSI_	28	144	2	96	48	4
NMTAP	28	240	7
NMTAP	28	288	7
NMTAP	29	0	6
NMTAP	29	48	5
NMTAP	29	96	4
NMHLD	29	144	3	144
NMTAP	29	192	5
NMTAP	29	288	5
NMTAP	30	0	1
NMTAP	30	48	2
NMTAP	30	96	3
NMHLD	30	144	4	144
NMTAP	30	192	2
NMTAP	30	288	2
NMTAP	31	0	3
NMTAP	31	0	7
NMTAP	31	96	2
NMTAP	31	120	4
NMTAP	31	144	2
NMTAP	31	168	4
NMTAP	31	192	1
NMTAP	31	216	5
NMTAP	31	240	1
NMTAP	31	264	5
NMSTR	31	288	0
NMSI_	31	288	0	96	48	4
NMTAP	31	312	6
NMTAP	31	336	0
NMTAP	31	360	6
NMHLD	32	96	3	96
NMTAP	32	96	7
NMTAP	32	192	1
NMTAP	32	204	0
NMTAP	32	216	7
NMTAP	32	228	6
NMTAP	32	240	5
NMTAP	32	252	4
NMTAP	32	264	3
NMTAP	32	276	2
BXSTR	32	288	0
NMSF_	32	288	0	96	48	4
EXTAP	33	0	0
NMTAP	33	96	1
NMTAP	33	96	7
NMTAP	33	144	2
NMTAP	33	192	3
NMTAP	33	192	4
NMTAP	33	240	5
NMTAP	33	288	0
NMTAP	33	288	6
NMTAP	33	336	1
NMTAP	34	0	2
NMSTR	34	0	3
NMSI_	34	0	3	96	48	7
NMSTR	34	96	1
NMSCR	34	96	1	96	48	4
NMTAP	34	96	3
NMTAP	34	192	1
NMSTR	34	192	6
NMSI_	34	192	6	96	48	2
NMTAP	34	288	6
NMTAP	34	288	7
NMSTR	35	0	1
NMSI_	35	0	1	96	48	4
NMSTR	35	0	5
NMSV_	35	0	5	96	48	0
NMTAP	35	96	1
NMTAP	35	96	5
NMTAP	35	192	2
NMHLD	35	192	6	96
NMTAP	35	288	7
NMTAP	35	336	0
NMSTR	35	336	6
NMSCL	35	336	6	96	48	3
BRSTR	36	48	0
NMSI_	36	48	0	96	48	5
BRSTR	36	96	1
NMSI_	36	96	1	96	48	4
BXTAP	36	144	0
BXTAP	36	192	1
NMTAP	36	288	3
NMTAP	36	288	6
NMTAP	36	336	1
NMSTR	37	0	7
NMSF_	37	0	7	96	48	3
EXTAP	37	96	7
NMTAP	37	192	0
NMTAP	37	192	6
NMTAP	37	240	5
NMTAP	37	288	3
NMTAP	37	288	4
NMTAP	37	336	2
NMSTR	38	0	1
NMSI_	38	0	1	96	48	5
NMTAP	38	0	7
NMSTR	38	96	0
NMSI_	38	96	0	96	48	4
NMSTR	38	192	7
NMSI_	38	192	7	96	48	3
NMSTR	38	288	6
NMSI_	38	288	6	96	48	2
NMSTR	39	0	5
NMSI_	39	0	5	96	48	1
NMTAP	39	96	7
NMSTR	39	144	7
NMSI_	39	144	7	96	48	3
NMSTR	39	240	2
NMSCL	39	240	2	96	192	4
EXTAP	39	240	7
NMTTP	39	336	0	C	1	M1
NMTTP	39	336	3	B	0	M1
NMTTP	39	336	4	B	0	M1
NMTAP	40	192	7
NMTAP	40	216	6
NMTAP	40	240	5
NMTAP	40	264	4
NMTAP	40	288	1
NMTAP	40	312	2
NMTAP	40	336	3
NMTAP	40	360	4
NMHLD	41	0	6	384
NMTAP	41	96	5
NMTAP	41	288	5
NMHLD	42	0	4	384
NMTAP	42	96	5
NMTAP	42	288	5
NMHLD	43	0	3	384
NMTAP	43	96	2
NMTAP	43	288	2
NMHLD	44	0	1	288
NMTAP	44	96	2
NMTAP	44	288	2
NMTAP	45	0	3
NMTAP	45	96	1
NMTAP	45	96	3
NMTAP	45	192	2
NMTAP	45	240	2
NMTAP	45	288	3
NMTAP	46	0	4
NMTAP	46	96	4
NMTAP	46	96	6
NMTAP	46	192	5
NMTAP	46	240	5
NMTAP	46	288	4
NMTAP	47	0	3
NMTAP	47	48	3
NMTAP	47	96	5
NMTAP	47	144	5
NMTAP	47	192	2
NMTAP	47	216	6
NMTAP	47	240	2
NMTAP	47	264	6
NMTAP	47	288	1
NMTAP	47	312	7
NMTAP	47	336	1
NMTAP	47	360	7
NMTTP	48	0	0	B	0	M1
NMTTP	48	12	0	C	0	M1
NMTTP	48	24	4	B	0	M1
EXTAP	48	240	0
EXTAP	48	240	7
EXTAP	48	264	0
EXTAP	48	264	7
BRTAP	48	288	1
BRTAP	48	288	6
NMSTR	49	0	1
NMSI_	49	0	1	96	64	5
NMSTR	49	96	4
NMSI_	49	96	4	96	48	2
CNSCL	49	160	5	0	32	4
NMTAP	49	192	7
NMTAP	49	256	7
NMTAP	49	288	1
NMTAP	49	352	1
NMTAP	50	0	6
NMTAP	50	64	6
NMSTR	50	96	0
NMSI_	50	96	0	96	96	4
NMSV_	50	96	0	96	96	1
CNSI_	50	288	1	0	48	3
CNSI_	50	288	4	0	48	6
NMTAP	51	0	7
NMTAP	51	32	7
NMTAP	51	64	7
NMTAP	51	96	0
NMTAP	51	96	6
NMHLD	51	192	1	64
NMTAP	51	256	4
NMHLD	51	288	2	64
NMTAP	51	360	5
NMHLD	52	0	3	64
NMTAP	52	64	6
NMSTR	52	96	4
NMSUL	52	96	4	96	96	3
EXTAP	52	288	1
EXTAP	52	320	0
EXTAP	52	352	7
NMSTR	53	0	6
NMSI_	53	0	6	96	64	2
NMSTR	53	96	3
NMSI_	53	96	3	96	48	5
CNSCR	53	160	2	0	32	3
NMTAP	53	192	0
NMTAP	53	256	0
NMTAP	53	288	6
NMTAP	53	352	6
NMTAP	54	0	1
NMTAP	54	64	1
NMSTR	54	96	7
NMSI_	54	96	7	96	96	3
NMSV_	54	96	7	96	96	6
CNSI_	54	288	3	0	48	1
CNSI_	54	288	6	0	48	4
NMSTR	55	0	0
NMSCR	55	0	0	96	48	3
NMHLD	55	96	0	96
NMSTR	55	192	5
NMSI_	55	192	5	96	48	2
NMHLD	55	288	5	96
NMSTR	56	0	1
NMSI_	56	0	1	96	48	6
NMHLD	56	96	1	96
NMSTR	56	192	7
NMSCL	56	192	7	96	48	4
NMHLD	56	288	7	96
NMTTP	57	0	2	B	1	M1
NMTTP	57	0	2	E	0	M1
NMTTP	57	0	2	A	0	M1
NMTTP	57	0	3	E	0	M1
NMSTR	59	0	1
NMSI_	59	0	1	96	48	6
NMSTR	59	0	5
NMSI_	59	0	5	96	48	2
NMTAP	59	96	1
NMTAP	59	96	5
NMTAP	59	192	0
NMTAP	59	192	4
NMTAP	59	240	1
NMTAP	59	288	2
NMTAP	59	336	3
NMHLD	59	336	5	96
NMTAP	60	48	6
NMSTR	60	96	7
NMSI_	60	96	7	96	48	3
NMTAP	60	144	0
NMHLD	60	192	1	96
NMTAP	60	288	4
NMTAP	60	336	3
NMTAP	60	336	5
NMSTR	61	48	2
NMSI_	61	48	2	96	48	4
NMSTR	61	96	6
NMSI_	61	96	6	96	48	2
NMTAP	61	144	2
NMTAP	61	192	6
NMTAP	61	288	1
NMTAP	61	288	7
NMTAP	61	336	1
NMTAP	61	336	7
NMSTR	62	48	0
NMSI_	62	48	0	96	48	3
NMSTR	62	96	3
NMSI_	62	96	3	96	48	6
NMTAP	62	144	5
NMSTR	62	192	7
NMSI_	62	192	7	96	48	2
NMSI_	62	192	7	96	48	4
EXTAP	62	288	7
NMSTR	63	0	3
NMSCL	63	0	3	96	48	0
NMTAP	63	96	3
NMTAP	63	96	4
NMSTR	63	192	6
NMSCL	63	192	6	96	48	3
NMTAP	63	192	7
NMTAP	63	288	2
NMHLD	63	336	1	96
NMTAP	64	48	3
NMSTR	64	96	3
NMSXL	64	96	3	96	96	3
NMSXR	64	96	3	96	96	3
NMHLD	64	336	7	96
NMTAP	65	48	5
NMTAP	65	96	4
NMTAP	65	144	3
NMTAP	65	192	2
NMTAP	65	192	6
NMTAP	65	240	7
NMTAP	65	288	0
NMTAP	65	336	1
NMSTR	65	336	3
NMSCR	65	336	3	96	48	6
NMTAP	66	48	0
NMSTR	66	96	0
NMSF_	66	96	0	96	48	4
NMTAP	66	192	0
BRTAP	66	288	2
BRTAP	66	288	6
NMSTR	67	0	1
NMSI_	67	0	1	96	48	7
NMTAP	67	0	5
NMTAP	67	96	3
NMTAP	67	192	6
NMTAP	67	240	6
NMTAP	67	288	4
NMHLD	67	336	5	96
NMTAP	68	48	3
NMTAP	68	96	2
NMTAP	68	96	4
NMTAP	68	192	0
NMTAP	68	240	0
NMTAP	68	288	1
NMTAP	68	288	7
NMTAP	69	0	2
NMSTR	69	0	6
NMSI_	69	0	6	96	48	0
NMTAP	69	96	4
NMTAP	69	192	1
NMTAP	69	240	1
NMSTR	69	288	0
NMSI_	69	288	0	96	48	3
NMTAP	69	288	7
NMTAP	70	0	0
NMSTR	70	0	7
NMSI_	70	0	7	96	48	4
NMSTR	70	96	0
NMSCR	70	96	0	96	48	3
NMTAP	70	96	7
NMTAP	70	192	0
NMSTR	70	192	7
NMSCL	70	192	7	96	48	4
NMTAP	70	288	0
NMTAP	70	288	7
NMTAP	71	0	2
NMTAP	71	48	2
NMTAP	71	96	4
NMTAP	71	144	4
BRTAP	71	192	3
NMTAP	71	216	5
EXTAP	71	240	3
NMTAP	71	264	5
NMTAP	71	288	3
NMTAP	71	312	5
EXTAP	71	336	3
NMTAP	71	360	5
BRTAP	72	0	2
NMTAP	72	24	4
NMTAP	72	48	2
NMTAP	72	72	4
NMTAP	72	96	2
NMTAP	72	120	4
NMTAP	72	144	2
NMTAP	72	168	4
BRTAP	72	192	1
NMTAP	72	216	3
EXTAP	72	240	1
NMTAP	72	264	3
NMTAP	72	288	1
NMTAP	72	312	3
EXTAP	72	336	1
NMTAP	72	360	3
NMHLD	73	0	0	72
NMHLD	73	72	1	72
NMTAP	73	144	2
NMHLD	73	192	6	72
NMHLD	73	264	5	72
NMTAP	73	336	4
BRHLD	74	0	0	384
NMTAP	74	336	3
NMTAP	74	352	4
NMTAP	74	368	5
NMHLD	75	0	6	1728
NMHLD	76	0	2	2688
NMTAP	80	0	3
NMTAP	80	96	3
NMTAP	80	192	1
NMTAP	80	288	1
NMTAP	81	0	3
NMTAP	81	96	3
NMTAP	81	192	1
NMTAP	81	288	1
NMTAP	82	0	3
NMTAP	82	96	3
NMTAP	82	192	1
NMTAP	82	288	1
BRTAP	83	0	3
BRTAP	83	48	0
BRHLD	83	48	4	144
NMTAP	83	192	6
NMTAP	83	204	7
NMTAP	83	216	0
NMTAP	83	228	1
NMTAP	83	240	2
NMTAP	83	252	3
NMTAP	83	264	4
NMTAP	83	276	5
BXSTR	83	288	7
NMSF_	83	288	7	96	48	3
EXTAP	84	0	7
NMTAP	84	96	0
NMTAP	84	96	6
NMTAP	84	144	5
NMTAP	84	192	3
NMTAP	84	192	4
NMTAP	84	240	2
NMTAP	84	288	1
NMTAP	84	288	7
NMTAP	84	336	6
NMSTR	85	0	4
NMSI_	85	0	4	96	48	0
NMTAP	85	0	5
NMTAP	85	96	4
NMSTR	85	96	6
NMSCL	85	96	6	96	48	3
NMSTR	85	192	1
NMSI_	85	192	1	96	48	5
NMTAP	85	192	6
NMTAP	85	288	0
NMTAP	85	288	1
NMSTR	86	0	2
NMSV_	86	0	2	96	48	7
NMSTR	86	0	6
NMSI_	86	0	6	96	48	3
NMTAP	86	96	2
NMTAP	86	96	6
NMHLD	86	192	1	96
NMTAP	86	192	5
NMTAP	86	288	0
NMSTR	86	336	2
NMSCL	86	336	2	96	48	7
NMTAP	86	336	6
BRSTR	87	48	4
NMSI_	87	48	4	96	48	0
BRSTR	87	96	6
NMSI_	87	96	6	96	48	3
BXTAP	87	144	4
BXTAP	87	192	6
NMTAP	87	288	1
NMTAP	87	312	7
NMTAP	87	336	1
NMTAP	87	360	7
NMSTR	88	0	0
NMSF_	88	0	0	96	48	4
EXTAP	88	96	0
NMTAP	88	192	1
NMTAP	88	192	7
NMTAP	88	240	2
NMTAP	88	288	3
NMTAP	88	288	4
NMTAP	88	336	5
NMTAP	89	0	0
NMSTR	89	0	6
BRSI_	89	0	6	96	48	2
NMSTR	89	96	7
BRSI_	89	96	7	96	48	3
NMSTR	89	192	0
BRSI_	89	192	0	96	48	4
NMSTR	89	288	1
BRSI_	89	288	1	96	48	5
NMSTR	90	0	2
BRSI_	90	0	2	96	48	6
NMTAP	90	96	0
NMSTR	90	144	0
NMSI_	90	144	0	96	48	4
BRTAP	90	240	0
NMSTR	90	240	5
NMSCR	90	240	5	96	192	3
NMTTP	90	336	0	C	1	M1
NMTTP	90	336	3	B	0	M1
NMTTP	90	336	4	B	0	M1
NMTAP	91	192	0
NMTAP	91	216	1
NMTAP	91	240	2
NMTAP	91	264	3
NMTAP	91	288	6
NMTAP	91	312	5
NMTAP	91	336	4
NMTAP	91	360	3
NMSTR	92	0	1
NMSI_	92	0	1	96	48	4
NMTAP	92	96	5
NMSTR	92	192	3
NMSI_	92	192	3	96	48	0
NMTAP	92	288	5
NMSTR	93	0	1
NMSCR	93	0	1	96	48	4
NMTAP	93	96	5
NMSTR	93	144	5
NMSCL	93	144	5	96	144	7
NMTAP	93	240	6
NMSTR	94	0	6
NMSI_	94	0	6	96	48	3
NMTAP	94	96	2
NMSTR	94	192	4
NMSI_	94	192	4	96	48	7
NMTAP	94	288	2
NMSTR	95	0	6
NMSCL	95	0	6	96	48	3
NMTAP	95	96	2
NMSTR	95	144	2
NMSCR	95	144	2	96	144	0
NMTAP	95	240	1
NMSTR	96	0	1
NMSI_	96	0	1	96	48	4
NMTAP	96	96	5
NMSTR	96	192	3
NMSI_	96	192	3	96	48	0
NMTAP	96	288	5
NMSTR	97	0	1
NMSCR	97	0	1	96	48	4
NMTAP	97	96	5
NMSTR	97	144	5
NMSCL	97	144	5	96	144	7
NMTAP	97	240	6
NMTAP	98	0	6
NMTAP	98	48	6
NMTAP	98	96	0
NMTAP	98	144	0
NMTAP	98	192	1
NMTAP	98	216	7
NMTAP	98	240	1
NMTAP	98	264	7
NMTAP	98	288	2
NMTAP	98	312	6
NMTAP	98	336	2
NMTAP	98	360	6
NMTAP	99	0	3
NMTAP	99	0	5
NMSTR	99	192	0
BRSI_	99	192	0	96	48	4
NMTAP	99	240	4
NMTAP	99	264	4
NMTTP	99	288	0	C	1	M1
NMSTR	100	0	6
NMSI_	100	0	6	96	48	1
NMSTR	100	96	1
NMSI_	100	96	1	96	48	4
NMSTR	100	192	4
NMSI_	100	192	4	96	48	7
NMSTR	100	288	7
NMSI_	100	288	7	96	48	3
NMSTR	101	0	3
NMSI_	101	0	3	96	48	0
NMSTR	101	96	0
NMSI_	101	96	0	96	48	5
NMSTR	101	192	5
NMSI_	101	192	5	96	48	2
NMTAP	101	288	2
NMSTR	102	0	7
NMSCR	102	0	7	96	96	5
NMTAP	102	48	7
EXTAP	102	96	6
NMSTR	102	192	0
NMSCL	102	192	0	96	96	2
NMTAP	102	240	0
EXTAP	102	288	1
NMSTR	103	0	7
NMSCR	103	0	7	96	96	5
NMTAP	103	48	7
EXTAP	103	96	6
NMSTR	103	192	0
NMSCL	103	192	0	96	96	2
NMTAP	103	240	0
EXTAP	103	288	1
NMSTR	104	0	1
NMSI_	104	0	1	96	48	6
NMSTR	104	96	6
NMSI_	104	96	6	96	48	3
NMSTR	104	192	3
NMSI_	104	192	3	96	48	0
NMSTR	104	288	0
NMSI_	104	288	0	96	48	4
NMSTR	105	0	4
NMSI_	105	0	4	96	48	7
NMSTR	105	96	7
NMSI_	105	96	7	96	48	2
NMSTR	105	192	2
NMSI_	105	192	2	96	48	5
NMTAP	105	288	5
NMSTR	106	0	6
NMSCR	106	0	6	96	48	1
NMTAP	106	96	3
NMSTR	106	144	3
BRSF_	106	144	3	96	48	7
NMTAP	106	240	3
NMTAP	106	336	1
NMTAP	106	336	5
NMTAP	107	48	0
NMTAP	107	48	7
NMSTR	107	96	1
NMSCR	107	96	1	96	48	3
NMSTR	107	96	6
NMSCL	107	96	6	96	48	4
NMTAP	107	192	1
NMTAP	107	192	6
NMTAP	107	288	0
NMTAP	107	312	7
NMTAP	107	336	0
NMTAP	107	360	7
NMSTR	108	0	1
NMSCL	108	0	1	96	48	6
NMSTR	108	96	6
NMSI_	108	96	6	96	48	2
NMSTR	108	192	2
NMSCR	108	192	2	96	48	5
NMSTR	108	288	5
NMSI_	108	288	5	96	48	1
NMSTR	109	0	1
NMSCL	109	0	1	96	48	6
NMSTR	109	96	6
NMSI_	109	96	6	96	48	2
NMSTR	109	192	2
NMSCR	109	192	2	96	48	5
NMTAP	109	288	5
NMSTR	110	0	0
NMSCL	110	0	0	96	96	2
NMTAP	110	48	0
EXTAP	110	96	1
NMSTR	110	192	7
NMSCR	110	192	7	96	96	5
NMTAP	110	240	7
EXTAP	110	288	6
NMSTR	111	0	0
NMSCL	111	0	0	96	96	2
NMTAP	111	48	0
EXTAP	111	96	1
NMSTR	111	192	7
NMSCR	111	192	7	96	96	5
NMTAP	111	240	7
EXTAP	111	288	6
BRTAP	112	0	0
EXSTR	112	96	1
NMSI_	112	96	1	96	48	5
NMTAP	112	144	1
EXSTR	112	192	6
NMSCR	112	192	6	96	48	1
NMTAP	112	240	6
EXSTR	112	288	2
NMSCR	112	288	2	96	48	5
NMTAP	112	336	2
EXSTR	113	0	6
NMSI_	113	0	6	96	48	2
NMTAP	113	48	6
EXSTR	113	96	0
NMSCR	113	96	0	96	48	3
NMTAP	113	144	0
EXSTR	113	192	7
NMSCL	113	192	7	96	48	4
NMTAP	113	240	7
EXTAP	113	288	0
NMTAP	114	0	1
NMTAP	114	0	3
NMTAP	114	48	2
NMTAP	114	96	3
NMTAP	114	144	4
NMTAP	114	144	6
NMTAP	114	192	5
NMTAP	114	240	4
NMTAP	114	288	1
NMTAP	114	288	3
NMTAP	114	336	0
NMTAP	114	336	7
NMTAP	115	0	4
NMSTR	115	0	6
NMSI_	115	0	6	96	48	2
NMTAP	115	96	6
NMTAP	115	96	7
NMSTR	115	192	1
NMSI_	115	192	1	96	48	5
NMTAP	115	240	0
NMTAP	115	240	2
EXTAP	115	288	1
EXSTR	116	0	3
NMSI_	116	0	3	96	48	0
EXSTR	116	0	4
NMSI_	116	0	4	96	48	7
BRTAP	116	96	3
BRTAP	116	96	4
NMTAP	116	192	1
NMTAP	116	192	6
NMTAP	116	240	1
NMSTR	116	240	6
NMSI_	116	240	6	96	48	2
NMSTR	116	336	0
NMSCR	116	336	0	96	48	3
NMSTR	117	48	4
NMSCR	117	48	4	96	48	7
NMHLD	117	144	2	96
NMTAP	117	240	0
NMSTR	117	288	4
NMSI_	117	288	4	96	48	0
NMSTR	117	288	6
NMSCL	117	288	6	96	48	3
NMSTR	118	96	7
NMSI_	118	96	7	96	48	3
NMTAP	118	192	1
NMSTR	118	240	1
NMSI_	118	240	1	96	48	5
NMSTR	118	336	7
NMSCL	118	336	7	96	48	4
NMSTR	119	48	3
NMSCL	119	48	3	96	48	0
NMHLD	119	144	5	96
NMTAP	119	240	7
NMSTR	119	288	1
NMSCR	119	288	1	96	48	4
NMSTR	119	288	3
NMSI_	119	288	3	96	48	7
NMSTR	120	96	0
NMSI_	120	96	0	96	48	4
NMTAP	120	192	6
NMSTR	120	240	6
NMSI_	120	240	6	96	48	2
NMSTR	120	336	0
NMSCR	120	336	0	96	48	3
NMSTR	121	48	4
NMSCR	121	48	4	96	48	7
NMHLD	121	144	2	96
NMTAP	121	240	0
NMSTR	121	288	4
NMSI_	121	288	4	96	48	0
NMTAP	121	288	6
NMSTR	122	0	7
NMSI_	122	0	7	96	48	3
NMTAP	122	96	1
NMTAP	122	96	7
NMTAP	122	192	0
NMTAP	122	192	6
NMTAP	122	240	0
NMTAP	122	240	6
NMHLD	122	336	1	48
NMHLD	122	336	5	48
NMHLD	123	48	0	48
NMHLD	123	48	4	48
NMSTR	123	144	3
NMSI_	123	144	3	96	24	5
NMSTR	123	144	7
NMSI_	123	144	7	96	24	1
CNSCR	123	264	1	0	24	2
CNSCR	123	264	5	0	24	6
CNSI_	123	288	2	0	24	4
CNSI_	123	288	6	0	24	0

T_REC_TAP	466
T_REC_BRK	14
T_REC_XTP	32
T_REC_BXX	4
T_REC_HLD	47
T_REC_XHO	0
T_REC_BHO	2
T_REC_BXH	0
T_REC_STR	170
T_REC_BST	6
T_REC_XST	8
T_REC_XBS	2
T_REC_TTP	14
T_REC_THO	0
T_REC_SLD	184
T_REC_BSL	7
T_REC_ALL	956
T_NUM_TAP	690
T_NUM_BRK	35
T_NUM_HLD	47
T_NUM_SLD	184
T_NUM_ALL	956
T_JUDGE_TAP	716
T_JUDGE_HLD	209
T_JUDGE_SLD	191
T_JUDGE_ALL	1116
TTM_EACHPAIRS	124
TTM_SCR_TAP	345000
TTM_SCR_BRK	91000
TTM_SCR_HLD	47000
TTM_SCR_SLD	276000
TTM_SCR_ALL	759000
TTM_SCR_S	732850
TTM_SCR_SS	755500
TTM_RAT_ACV	10046

