VERSION	0.00.00	1.03.00
FES_MODE	0
BPM_DEF	187.000	187.000	187.000	187.000
MET_DEF	4	4
RESOLUTION	384
CLK_DEF	384
COMPATIBLE_CODE	MA2

BPM	0	0	187.000
MET	0	0	4	4

STR	1	0	1
SI_	1	0	1	96	48	7
TAP	1	0	5
TAP	1	96	1
TAP	1	96	4
TAP	1	192	3
STR	1	240	3
SI_	1	240	3	96	48	7
STR	1	336	1
SI_	1	336	1	96	48	6
STR	2	48	5
SI_	2	48	5	96	48	2
HLD	2	144	1	96
TAP	2	240	3
TAP	2	288	0
TAP	2	288	4
TAP	3	0	2
STR	3	0	6
SI_	3	0	6	96	48	0
TAP	3	96	3
TAP	3	96	6
TAP	3	192	4
STR	3	240	4
SI_	3	240	4	96	48	0
STR	3	336	6
SI_	3	336	6	96	48	1
STR	4	48	2
SI_	4	48	2	96	48	5
HLD	4	144	6	96
TAP	4	240	4
TAP	4	288	3
TAP	4	288	7
STR	5	0	1
SI_	5	0	1	96	48	7
TAP	5	0	5
TAP	5	96	1
TAP	5	96	4
TAP	5	192	3
STR	5	240	3
SI_	5	240	3	96	48	7
STR	5	336	1
SI_	5	336	1	96	48	6
STR	6	48	5
SI_	6	48	5	96	48	2
HLD	6	144	1	96
TAP	6	240	3
TAP	6	288	0
TAP	6	288	4
TAP	7	0	2
STR	7	0	6
SI_	7	0	6	96	48	0
TAP	7	96	3
TAP	7	96	6
TAP	7	192	4
TAP	7	240	4
TAP	7	336	1
TAP	7	336	3
TAP	8	48	4
TAP	8	48	6
TAP	8	144	1
TAP	8	144	3
TAP	8	240	5
TAP	8	288	4
TAP	8	288	6
STR	9	0	3
SI_	9	0	3	96	48	0
STR	9	0	7
SI_	9	0	7	96	48	4
TAP	9	192	1
TAP	9	288	1
XTP	9	336	3
XTP	10	0	2
TAP	10	96	2
TAP	10	192	3
TAP	10	288	3
XTP	10	336	5
XTP	11	0	4
TAP	11	96	4
TAP	11	192	3
TAP	11	288	3
XTP	11	336	4
XTP	12	0	2
TAP	12	96	2
TAP	12	192	2
STR	12	192	4
SI_	12	192	4	96	48	7
XTP	12	288	3
TAP	12	288	4
STR	13	0	2
SCR	13	0	2	96	48	5
TAP	13	96	7
STR	13	192	6
SCR	13	192	6	96	48	1
TAP	13	288	3
STR	13	336	3
SI_	13	336	3	96	48	0
TAP	14	48	7
STR	14	96	7
SI_	14	96	7	96	48	3
TAP	14	192	1
TAP	14	288	0
HLD	14	336	0	96
TAP	15	48	3
STR	15	96	3
SI_	15	96	3	96	48	1
SLR	15	96	3	96	96	7
XTP	15	288	0
XHO	15	336	0	96
TAP	16	48	5
STR	16	96	1
SI_	16	96	1	96	48	3
STR	16	96	6
SI_	16	96	6	96	48	4
XTP	16	192	1
XTP	16	192	6
TAP	16	336	1
TAP	16	336	5
STR	17	0	1
SI_	17	0	1	96	48	6
STR	17	0	5
SI_	17	0	5	96	48	2
TAP	17	192	0
TAP	17	240	0
TAP	17	288	7
HLD	17	336	7	96
TAP	18	48	4
STR	18	96	4
SCL	18	96	4	96	48	1
STR	18	192	7
SCL	18	192	7	96	48	4
TAP	18	288	2
HLD	18	336	2	96
TAP	19	48	5
STR	19	96	5
SCR	19	96	5	96	48	0
TAP	19	192	1
STR	19	240	1
SCL	19	240	1	96	96	5
TAP	19	336	3
TAP	20	48	4
STR	20	96	4
SF_	20	96	4	96	48	0
XTP	20	336	7
XHO	21	0	7	96
STR	21	96	2
SCL	21	96	2	96	48	7
STR	21	192	5
SCL	21	192	5	96	48	2
TAP	21	288	0
HLD	21	336	0	96
TAP	22	48	7
STR	22	96	7
SI_	22	96	7	96	48	5
STR	22	192	1
SI_	22	192	1	96	48	3
TAP	22	288	0
TAP	23	0	2
TAP	23	48	2
TAP	23	96	3
TAP	23	144	1
TAP	23	192	6
STR	23	240	6
SCL	23	240	6	96	96	0
STR	23	336	0
SSL	23	336	0	96	144	4
TAP	24	288	2
TAP	24	288	6
TAP	25	0	5
HLD	25	48	5	720
TAP	25	144	4
TAP	25	192	4
TAP	25	288	7
TAP	25	336	7
TTP	26	48	5	B	0	M1
TTP	26	48	5	E	0	M1
TTP	26	48	6	E	0	M1
TTP	26	144	2	B	0	M1
TTP	26	144	2	E	0	M1
TTP	26	144	3	E	0	M1
TAP	26	240	0
TAP	26	288	0
TAP	27	0	2
HLD	27	48	2	720
TAP	27	144	3
TAP	27	192	3
TAP	27	288	0
TAP	27	336	0
TTP	28	48	2	B	0	M1
TTP	28	48	2	E	0	M1
TTP	28	48	3	E	0	M1
TTP	28	144	5	B	0	M1
TTP	28	144	5	E	0	M1
TTP	28	144	6	E	0	M1
TAP	28	240	7
TAP	28	288	7
STR	29	0	5
SCR	29	0	5	96	432	3
TAP	29	96	4
TAP	29	192	4
TAP	29	288	4
TAP	30	0	4
TAP	30	96	4
TAP	30	192	4
TAP	30	288	3
TAP	30	288	4
TAP	30	336	2
TAP	30	336	5
TAP	31	0	1
TAP	31	0	6
TAP	31	96	2
TAP	31	96	5
TAP	31	144	2
TAP	31	144	5
STR	31	240	0
SI_	31	240	0	96	48	4
STR	31	240	7
SI_	31	240	7	96	48	3
XTP	31	336	0
XTP	31	336	7
TTP	32	96	3	B	0	M1
TTP	32	96	3	E	0	M1
TTP	32	96	4	B	0	M1
TTP	32	96	5	E	0	M1
XTP	32	192	7
XTP	32	204	6
XTP	32	216	5
XTP	32	228	4
XTP	32	240	3
XTP	32	252	2
XTP	32	264	1
XTP	32	276	0
XTP	32	288	7
TAP	33	0	2
TAP	33	0	5
TAP	33	96	3
HLD	33	96	6	576
TAP	33	144	3
TAP	33	192	4
TAP	33	240	5
STR	33	288	7
SI_	33	288	7	96	48	5
STR	34	0	7
SI_	34	0	7	96	48	2
STR	34	96	7
SI_	34	96	7	96	48	5
STR	34	192	7
SI_	34	192	7	96	48	2
TAP	34	288	7
TAP	35	0	1
TAP	35	0	5
TAP	35	48	0
TAP	35	48	4
STR	35	96	3
SCR	35	96	3	96	48	6
STR	35	96	7
SCR	35	96	7	96	48	2
TAP	35	192	3
TAP	35	192	7
TAP	35	288	1
TAP	35	288	5
TAP	35	336	1
TAP	35	336	5
BRK	36	48	6
BRK	36	96	4
BRK	36	144	2
BRK	36	192	0
XTP	36	240	7
XST	36	288	7
SCL	36	288	7	96	96	3
STR	37	0	3
SLR	37	0	3	96	96	7
TAP	37	96	1
TAP	37	192	0
TAP	37	240	0
STR	37	288	6
SI_	37	288	6	96	48	0
STR	38	0	1
SI_	38	0	1	96	48	5
STR	38	96	4
SI_	38	96	4	96	48	2
TAP	38	192	1
TAP	38	288	0
TAP	38	336	0
XST	39	0	7
SCR	39	0	7	96	96	3
XST	39	96	3
SCR	39	96	3	96	96	7
XST	39	192	7
SCR	39	192	7	96	96	3
XST	39	288	3
SCR	39	288	3	96	192	3
TTP	40	0	0	C	1	M1
XTP	40	288	2
HLD	40	288	7	480
STR	41	0	4
SI_	41	0	4	96	48	2
STR	41	192	0
SI_	41	192	0	96	48	2
STR	42	0	3
SCL	42	0	3	96	48	0
TAP	42	96	6
STR	42	144	6
SCL	42	144	6	96	48	3
TAP	42	240	0
HLD	42	288	0	480
STR	43	0	3
SI_	43	0	3	96	48	5
STR	43	192	7
SI_	43	192	7	96	48	5
STR	44	0	4
SCR	44	0	4	96	48	6
TAP	44	96	1
STR	44	144	1
SI_	44	144	1	96	48	3
TAP	44	240	5
HLD	44	288	5	480
STR	45	0	0
SI_	45	0	0	96	48	2
STR	45	192	3
SI_	45	192	3	96	48	1
STR	46	0	0
SCR	46	0	0	96	48	3
TAP	46	96	4
STR	46	144	4
SCR	46	144	4	96	48	7
TAP	46	240	3
TAP	46	288	3
TAP	47	0	2
TAP	47	48	2
TAP	47	96	4
TAP	47	144	4
TAP	47	192	3
TAP	47	240	3
STR	47	288	2
SV_	47	288	2	96	96	7
STR	47	288	4
SV_	47	288	4	96	96	7
STR	48	192	0
SI_	48	192	0	96	48	3
TAP	48	192	5
BRK	48	288	0
STR	48	288	6
SXR	48	288	6	96	384	3
HLD	49	0	2	64
HLD	49	96	2	64
XHO	49	192	1	64
XHO	49	288	1	64
TAP	50	0	0
STR	50	96	1
SXL	50	96	1	96	96	1
STR	50	96	7
SXR	50	96	7	96	96	7
TAP	51	0	2
TAP	51	0	6
TAP	51	32	2
TAP	51	32	6
TAP	51	64	2
TAP	51	64	6
STR	51	96	2
SCR	51	96	2	96	48	4
STR	51	96	6
SCL	51	96	6	96	48	4
STR	51	192	2
SCL	51	192	2	96	48	0
STR	51	192	6
SCR	51	192	6	96	48	0
XTP	51	288	2
XTP	51	288	6
HLD	52	0	2	64
HLD	52	0	6	64
STR	52	96	0
SCR	52	96	0	96	48	3
STR	52	96	4
SCR	52	96	4	96	48	7
XST	52	288	6
SXL	52	288	6	96	384	4
HLD	53	0	3	64
HLD	53	96	3	64
XHO	53	192	2	64
XHO	53	288	2	64
TAP	54	0	1
STR	54	96	1
SXR	54	96	1	96	96	1
STR	54	96	4
SXL	54	96	4	96	96	4
STR	55	0	7
SI_	55	0	7	96	48	4
SUL	55	0	7	96	48	2
STR	55	192	1
SI_	55	192	1	96	48	6
SUL	55	192	1	96	48	4
STR	56	0	3
SI_	56	0	3	96	48	0
SUL	56	0	3	96	48	6
STR	56	192	5
SI_	56	192	5	96	48	2
SUL	56	192	5	96	48	0
BRK	57	0	7
TAP	59	0	4
HLD	59	0	5	96
TAP	59	48	4
TAP	59	96	3
HLD	59	192	2	96
TAP	59	192	3
TAP	59	240	3
TAP	59	288	4
STR	59	336	5
SI_	59	336	5	96	48	3
TAP	60	48	1
STR	60	96	1
SI_	60	96	1	96	48	7
HLD	60	192	4	96
TAP	60	288	0
STR	60	336	0
SI_	60	336	0	96	48	2
STR	61	48	3
SI_	61	48	3	96	48	5
TAP	61	144	1
STR	61	192	1
SCL	61	192	1	96	48	6
TAP	61	288	4
STR	61	336	4
SI_	61	336	4	96	48	7
TAP	62	48	0
TAP	62	96	0
TAP	62	192	1
TAP	62	192	6
TAP	62	288	3
TAP	62	288	4
HLD	63	0	1	96
TAP	63	0	3
TAP	63	48	4
TAP	63	96	5
TAP	63	192	4
HLD	63	192	6	96
TAP	63	240	3
TAP	63	288	2
STR	63	336	2
SI_	63	336	2	96	48	4
TAP	64	48	6
STR	64	96	6
SI_	64	96	6	96	48	0
HLD	64	192	3	96
TAP	64	288	7
STR	64	336	7
SI_	64	336	7	96	48	4
STR	65	48	3
SI_	65	48	3	96	48	0
TAP	65	144	6
STR	65	192	6
SCR	65	192	6	96	48	1
TAP	65	288	4
STR	65	336	4
SCL	65	336	4	96	48	1
TAP	66	48	5
TAP	66	96	5
TAP	66	192	2
TAP	66	192	6
TAP	66	336	7
STR	67	0	7
SI_	67	0	7	96	48	3
STR	67	96	1
SI_	67	96	1	96	48	5
TAP	67	192	6
TAP	67	288	0
STR	67	336	0
SCR	67	336	0	96	96	4
STR	68	48	4
SLR	68	48	4	96	96	0
STR	68	144	0
SCR	68	144	0	96	96	4
TAP	68	240	4
TAP	68	336	0
TAP	69	0	0
TAP	69	96	1
TAP	69	96	7
TAP	69	192	2
TAP	69	192	6
STR	69	288	3
SCL	69	288	3	96	48	0
TAP	69	288	5
STR	70	0	3
SCR	70	0	3	96	48	6
STR	70	96	3
SI_	70	96	3	96	48	7
TAP	70	192	3
HLD	70	288	0	96
TAP	70	288	5
TAP	71	0	3
TAP	71	96	3
HLD	71	192	2	96
BRK	71	192	4
TAP	71	288	4
HLD	72	0	1	96
BRK	72	0	3
TAP	72	96	3
HLD	72	192	0	96
BRK	72	192	2
TAP	72	288	2
TAP	73	0	7
TTP	73	72	3	B	0	M1
TTP	73	72	3	E	0	M1
TTP	73	72	4	E	0	M1
TTP	73	144	6	B	0	M1
TTP	73	144	6	E	0	M1
TTP	73	144	7	E	0	M1
TAP	73	192	0
TTP	73	264	4	B	0	M1
TTP	73	264	4	E	0	M1
TTP	73	264	5	E	0	M1
TTP	73	336	1	B	0	M1
TTP	73	336	1	E	0	M1
TTP	73	336	2	E	0	M1
HLD	74	0	7	384
TTP	74	336	4	E	0	M1
TTP	74	360	3	E	0	M1
TTP	75	0	2	E	0	M1
STR	76	0	0
SI_	76	0	0	96	576	3
STR	78	0	7
SI_	78	0	7	96	576	4
TTP	79	0	1	B	0	M1
TTP	79	192	3	E	0	M1
TAP	80	0	2
TAP	80	96	2
STR	80	96	4
SCR	80	96	4	96	96	7
TAP	80	192	2
TAP	80	288	2
TAP	81	0	7
STR	81	96	3
SCL	81	96	3	96	96	0
TAP	81	96	6
TAP	81	192	5
TAP	81	288	4
TAP	82	0	0
TAP	82	96	1
TAP	82	192	2
TAP	82	192	4
TAP	82	288	3
TAP	82	288	4
XTP	83	0	2
XTP	83	0	5
XTP	83	48	2
XTP	83	48	5
STR	83	192	0
SI_	83	192	0	96	48	4
STR	83	192	7
SI_	83	192	7	96	48	3
BRK	83	288	0
BRK	83	288	7
TAP	84	0	1
TAP	84	0	6
TAP	84	72	4
TAP	84	96	3
TAP	84	144	3
TAP	84	192	2
TAP	84	192	5
TAP	84	240	1
TAP	84	240	6
STR	84	288	0
SI_	84	288	0	96	48	2
STR	84	288	7
SI_	84	288	7	96	48	3
STR	85	0	0
SI_	85	0	0	96	48	4
STR	85	0	7
SI_	85	0	7	96	48	5
STR	85	96	0
SI_	85	96	0	96	48	2
STR	85	96	7
SI_	85	96	7	96	48	3
STR	85	192	0
SI_	85	192	0	96	48	4
STR	85	192	7
SI_	85	192	7	96	48	5
TAP	85	288	0
TAP	85	288	7
TAP	86	0	2
TAP	86	0	6
TAP	86	48	3
TAP	86	48	7
STR	86	96	0
SCL	86	96	0	96	48	5
STR	86	96	4
SCL	86	96	4	96	48	1
TAP	86	192	0
TAP	86	192	4
TAP	86	288	2
TAP	86	288	6
TAP	86	336	2
TAP	86	336	6
BRK	87	48	1
BRK	87	96	3
BRK	87	144	5
BRK	87	192	7
XTP	87	240	0
XST	87	288	0
SLR	87	288	0	96	96	4
STR	88	0	4
SCL	88	0	4	96	96	0
TAP	88	96	6
TAP	88	192	7
TAP	88	240	7
STR	88	288	1
SI_	88	288	1	96	48	7
STR	89	0	6
SI_	89	0	6	96	48	2
STR	89	96	3
SI_	89	96	3	96	48	5
TAP	89	192	6
TAP	89	288	7
TAP	89	336	7
STR	90	0	1
SI_	90	0	1	96	48	5
TAP	90	0	6
TAP	90	96	7
STR	90	144	7
SI_	90	144	7	96	48	3
TAP	90	240	0
TAP	90	288	0
TAP	90	336	4
TTP	91	0	2	E	0	M1
TTP	91	24	2	B	0	M1
TTP	91	48	3	B	0	M1
TTP	91	72	4	E	0	M1
TTP	91	96	6	E	0	M1
TTP	91	120	6	B	0	M1
TTP	91	144	7	B	0	M1
TTP	91	168	0	E	0	M1
TTP	91	192	1	E	0	M1
TTP	91	216	1	B	0	M1
TTP	91	240	2	B	0	M1
TTP	91	264	3	E	0	M1
TTP	91	288	7	E	0	M1
TTP	91	312	6	B	0	M1
TTP	91	336	5	B	0	M1
TTP	91	360	5	E	0	M1
HLD	92	0	0	384
STR	92	192	7
SI_	92	192	7	96	48	5
STR	93	0	4
SCR	93	0	4	96	48	7
TAP	93	96	1
STR	93	144	1
SCR	93	144	1	96	48	4
TAP	93	240	6
TAP	93	288	6
STR	94	0	4
SI_	94	0	4	96	48	2
HLD	94	0	7	384
STR	94	192	0
SI_	94	192	0	96	48	2
STR	95	0	3
SCL	95	0	3	96	48	1
TAP	95	96	6
STR	95	144	6
SI_	95	144	6	96	48	4
TAP	95	240	3
TAP	95	288	3
HLD	96	0	2	384
STR	96	0	6
SI_	96	0	6	96	48	4
STR	96	192	3
SI_	96	192	3	96	48	5
STR	97	0	7
SCL	97	0	7	96	48	4
TAP	97	96	3
STR	97	144	3
SCL	97	144	3	96	48	0
TAP	97	240	4
TAP	97	288	4
TAP	98	0	5
TAP	98	48	5
TAP	98	96	3
TAP	98	144	3
TAP	98	192	4
TAP	98	240	4
STR	98	288	3
SV_	98	288	3	96	96	0
STR	98	288	5
SV_	98	288	5	96	96	0
STR	99	192	0
SI_	99	192	0	96	48	4
TAP	99	240	4
TAP	99	264	4
BRK	99	288	0
STR	100	0	6
SI_	100	0	6	96	48	2
STR	100	96	7
SI_	100	96	7	96	48	3
STR	100	192	0
SI_	100	192	0	96	48	4
STR	100	288	1
SI_	100	288	1	96	48	5
STR	101	0	2
SI_	101	0	2	96	48	6
STR	101	96	3
SI_	101	96	3	96	48	7
TAP	101	192	4
TAP	101	288	0
STR	101	288	5
SCR	101	288	5	96	96	1
TAP	102	0	4
STR	102	96	3
SCL	102	96	3	96	96	7
TAP	102	144	3
TAP	102	192	4
STR	102	288	5
SCR	102	288	5	96	96	1
TAP	102	336	5
TAP	103	0	4
STR	103	96	3
SUR	103	96	3	96	48	7
TAP	103	144	3
HLD	103	192	6	96
XTP	103	288	0
STR	104	0	1
SI_	104	0	1	96	48	5
STR	104	96	0
SI_	104	96	0	96	48	4
STR	104	192	7
SI_	104	192	7	96	48	3
STR	104	288	6
SI_	104	288	6	96	48	2
STR	105	0	5
SI_	105	0	5	96	48	1
STR	105	96	4
SI_	105	96	4	96	48	0
TAP	105	192	3
STR	105	288	3
SCR	105	288	3	96	96	7
STR	106	0	7
SCR	106	0	7	96	96	3
STR	106	96	3
SCR	106	96	3	96	96	7
STR	106	192	7
SCR	106	192	7	96	96	3
STR	106	288	3
SCR	106	288	3	96	192	3
TTP	107	0	0	C	1	M1
TAP	107	288	0
TAP	107	288	6
STR	108	0	1
SI_	108	0	1	96	48	5
STR	108	96	0
SI_	108	96	0	96	48	4
STR	108	192	7
SI_	108	192	7	96	48	3
STR	108	288	6
SI_	108	288	6	96	48	2
STR	109	0	5
SI_	109	0	5	96	48	1
STR	109	96	4
SI_	109	96	4	96	48	0
TAP	109	192	3
STR	109	288	2
SCL	109	288	2	96	96	6
TAP	109	288	7
TAP	110	0	3
STR	110	96	4
SCR	110	96	4	96	96	0
TAP	110	144	4
TAP	110	192	3
STR	110	288	2
SCL	110	288	2	96	96	6
TAP	110	336	2
TAP	111	0	3
STR	111	96	4
SUL	111	96	4	96	48	0
TAP	111	144	4
HLD	111	192	1	96
XTP	111	288	7
STR	112	0	6
SI_	112	0	6	96	48	3
STR	112	96	1
SI_	112	96	1	96	48	4
TAP	112	96	6
TAP	112	192	1
STR	112	192	7
SI_	112	192	7	96	48	3
STR	112	288	0
SI_	112	288	0	96	48	4
TAP	112	288	7
TAP	113	0	0
STR	113	0	7
SI_	113	0	7	96	48	2
STR	113	96	0
SI_	113	96	0	96	48	5
TAP	113	96	7
TAP	113	192	0
TAP	113	192	6
TAP	113	288	7
TAP	113	336	7
TAP	114	0	4
TAP	114	0	6
TAP	114	48	3
TAP	114	96	2
TAP	114	144	1
TAP	114	144	3
TAP	114	192	4
TAP	114	240	5
TAP	114	288	4
TAP	114	288	6
TAP	114	336	7
STR	115	0	0
SI_	115	0	0	96	48	3
STR	115	0	7
SI_	115	0	7	96	48	4
XTP	115	96	0
XTP	115	96	7
TAP	115	192	2
TAP	115	192	5
TAP	115	240	1
TAP	115	240	6
TAP	115	288	0
TAP	115	288	7
STR	116	0	3
SI_	116	0	3	96	48	0
STR	116	0	4
SI_	116	0	4	96	48	7
XTP	116	96	3
XTP	116	96	4
TAP	116	192	1
TAP	116	192	6
TAP	116	240	1
STR	116	240	6
SI_	116	240	6	96	48	2
STR	116	336	0
SI_	116	336	0	96	48	4
STR	117	48	5
SI_	117	48	5	96	48	2
HLD	117	144	1	96
TAP	117	240	7
TAP	117	288	3
TAP	117	288	5
TAP	118	0	2
STR	118	0	6
SI_	118	0	6	96	48	0
TAP	118	96	3
TAP	118	96	6
TAP	118	192	4
STR	118	240	4
SI_	118	240	4	96	48	0
STR	118	336	6
SI_	118	336	6	96	48	1
STR	119	48	2
SI_	119	48	2	96	48	5
HLD	119	144	6	96
TAP	119	240	0
TAP	119	288	2
TAP	119	288	4
STR	120	0	1
SI_	120	0	1	96	48	7
TAP	120	0	5
TAP	120	96	1
TAP	120	96	4
TAP	120	192	3
STR	120	240	3
SI_	120	240	3	96	48	7
STR	120	336	1
SI_	120	336	1	96	48	6
STR	121	48	5
SI_	121	48	5	96	48	2
HLD	121	144	1	96
TAP	121	240	7
TAP	121	288	0
TAP	121	288	6
STR	122	0	1
SI_	122	0	1	96	48	4
STR	122	0	5
SI_	122	0	5	96	48	0
TAP	122	192	2
TAP	122	192	6
HLD	122	240	2	48
HLD	122	240	6	48
HLD	122	336	1	48
HLD	122	336	5	48
HLD	123	48	0	48
HLD	123	48	4	48
STR	123	144	3
SLR	123	144	3	96	72	0
STR	123	144	7
SLR	123	144	7	96	72	4

T_REC_TAP	329
T_REC_BRK	16
T_REC_XTP	37
T_REC_HLD	44
T_REC_XHO	6
T_REC_STR	191
T_REC_BST	0
T_REC_XST	7
T_REC_TTP	51
T_REC_THO	0
T_REC_SLD	203
T_REC_ALL	884
T_NUM_TAP	615
T_NUM_BRK	16
T_NUM_HLD	50
T_NUM_SLD	203
T_NUM_ALL	884
T_JUDGE_TAP	631
T_JUDGE_HLD	178
T_JUDGE_SLD	203
T_JUDGE_ALL	1012
TTM_EACHPAIRS	126
TTM_SCR_TAP	307500
TTM_SCR_BRK	41600
TTM_SCR_HLD	50000
TTM_SCR_SLD	304500
TTM_SCR_ALL	703600
TTM_SCR_S	680950
TTM_SCR_SS	702000
TTM_RAT_ACV	10022

