VERSION	0.00.00	1.03.00
FES_MODE	0
BPM_DEF	187.000	187.000	187.000	187.000
MET_DEF	4	4
RESOLUTION	384
CLK_DEF	384
COMPATIBLE_CODE	MA2

BPM	0	0	187.000
MET	0	0	4	4

TAP	1	0	4
TAP	1	0	5
TAP	1	96	6
TAP	1	192	0
TAP	1	192	7
TAP	1	288	1
TAP	2	0	2
TAP	2	0	3
TAP	2	96	2
TAP	2	96	3
TAP	2	192	1
TAP	2	192	4
TAP	2	288	4
TAP	3	0	2
TAP	3	0	3
TAP	3	96	1
TAP	3	192	0
TAP	3	192	7
TAP	3	288	6
TAP	4	0	4
TAP	4	0	5
TAP	4	96	4
TAP	4	96	5
TAP	4	192	3
TAP	4	192	6
TAP	4	288	2
TAP	5	0	0
TAP	5	0	1
TAP	5	96	2
TAP	5	192	3
TAP	5	192	4
TAP	5	288	5
TAP	6	0	6
TAP	6	0	7
TAP	6	96	6
TAP	6	96	7
TAP	6	192	0
TAP	6	192	5
TAP	6	288	1
HLD	7	0	4	96
TAP	7	96	3
TAP	7	192	3
TAP	7	192	4
TAP	7	240	3
TAP	7	240	4
XTP	7	336	3
XTP	7	336	5
XTP	8	48	2
XTP	8	48	4
XTP	8	144	1
XTP	8	144	6
XTP	8	240	0
XTP	8	240	7
XTP	8	288	0
XTP	8	288	7
HLD	9	0	5	192
HLD	9	192	4	384
TTP	10	0	5	E	0	M1
TTP	10	96	6	E	0	M1
TTP	10	192	7	E	0	M1
HLD	11	0	2	192
HLD	11	192	3	384
TTP	12	0	3	E	0	M1
TTP	12	96	2	E	0	M1
TTP	12	192	1	E	0	M1
HLD	13	0	5	192
TAP	13	96	4
HLD	13	192	3	192
TAP	13	288	4
HLD	14	0	5	96
TAP	14	96	4
TAP	14	192	3
TAP	14	192	6
HLD	15	0	2	192
TAP	15	96	3
HLD	15	192	4	192
TAP	15	288	3
HLD	16	0	2	96
STR	16	96	3
SXL	16	96	3	96	144	4
XTP	17	0	2
TAP	17	96	1
TAP	17	96	3
TAP	17	192	5
TAP	17	288	4
TAP	17	288	6
TAP	18	0	2
TAP	18	48	2
TAP	18	96	3
STR	18	192	1
SI_	18	192	1	96	72	4
TAP	18	192	3
TAP	19	0	5
TAP	19	96	4
TAP	19	96	6
TAP	19	192	5
TAP	19	240	5
TAP	19	288	3
TAP	20	0	2
TAP	20	0	4
TAP	20	96	1
STR	20	96	5
SCL	20	96	5	96	96	2
XTP	21	0	1
TAP	21	96	2
TAP	21	96	4
TAP	21	192	6
TAP	21	288	3
TAP	21	288	5
TAP	22	0	2
TAP	22	48	2
TAP	22	96	4
STR	22	192	1
SCR	22	192	1	96	96	4
TAP	22	192	5
TAP	23	0	6
TAP	23	96	6
TAP	23	192	4
TAP	23	192	5
TAP	23	288	3
TAP	23	288	6
TAP	23	336	3
TAP	23	336	6
TAP	24	48	1
TAP	24	48	4
HLD	24	144	0	144
HLD	24	144	7	144
STR	25	0	5
SI_	25	0	5	96	96	3
HLD	25	192	2	144
XTP	25	336	3
XTP	26	48	2
XTP	26	48	3
XTP	26	144	3
XTP	26	144	4
XTP	26	240	4
XTP	26	240	5
XTP	26	288	4
XTP	26	288	5
STR	27	0	6
SI_	27	0	6	96	96	0
HLD	27	192	1	144
XTP	27	336	0
XTP	28	48	0
XTP	28	48	1
XTP	28	144	0
XTP	28	144	7
XTP	28	240	1
XTP	28	240	6
XTP	28	288	1
XTP	28	288	6
HLD	29	0	4	96
HLD	29	96	5	96
HLD	29	192	6	96
HLD	29	288	7	96
HLD	30	0	0	96
HLD	30	96	1	96
HLD	30	192	2	96
TAP	30	288	3
TAP	31	0	3
TAP	31	0	4
TAP	31	96	5
TAP	31	144	4
TAP	31	240	2
TAP	31	288	3
HLD	31	336	3	144
XTP	32	192	0
XTP	32	192	7
TAP	32	288	3
TAP	32	288	4
BRK	33	0	1
BRK	33	0	6
TAP	33	96	5
TAP	33	144	4
TAP	33	192	3
TAP	33	192	6
TAP	33	288	0
TAP	33	288	7
STR	34	0	2
SI_	34	0	2	96	48	7
STR	34	96	6
SI_	34	96	6	96	48	3
STR	34	192	0
SI_	34	192	0	96	48	4
TAP	34	288	5
HLD	35	0	6	96
HLD	35	96	4	96
HLD	35	192	2	96
TAP	35	288	0
TAP	35	336	0
TAP	36	48	2
TAP	36	48	3
TAP	36	96	2
TAP	36	96	3
BRK	36	192	0
BRK	36	192	4
TAP	37	0	1
TAP	37	0	6
TAP	37	96	3
TAP	37	96	4
TAP	37	192	2
TAP	37	240	3
TAP	37	288	1
TAP	37	288	4
STR	38	0	6
SI_	38	0	6	96	48	1
STR	38	96	2
SI_	38	96	2	96	48	5
STR	38	192	0
SI_	38	192	0	96	48	4
TAP	38	288	3
TAP	39	0	2
TAP	39	0	6
TAP	39	96	3
TAP	39	96	5
TAP	39	144	3
TAP	39	144	5
TAP	39	240	1
TAP	39	240	7
BST	39	336	2
SCL	39	336	2	96	192	4
BRK	39	336	6
TAP	41	0	6
TAP	41	96	4
HLD	41	192	5	96
STR	41	288	4
SXL	41	288	4	96	192	4
SXR	41	288	4	96	192	4
TAP	43	0	5
TAP	43	96	4
HLD	43	192	6	96
STR	43	288	4
SUL	43	288	4	96	192	3
TAP	45	0	1
TAP	45	96	3
HLD	45	192	2	96
STR	45	288	3
SXL	45	288	3	96	192	3
SXR	45	288	3	96	192	3
TAP	47	0	1
TAP	47	96	2
TAP	47	192	3
TAP	47	192	4
TAP	47	288	3
TAP	47	288	4
TTP	48	0	0	C	0	M1
BRK	48	288	0
BRK	48	288	7
TAP	49	0	3
TAP	49	0	4
TAP	49	96	3
TAP	49	96	4
TAP	49	192	5
TAP	49	264	5
TAP	49	288	4
TAP	49	360	4
XST	50	0	6
SLL	50	0	6	96	96	2
XST	50	96	0
SSL	50	96	0	96	144	4
TAP	51	0	5
TAP	51	96	5
TAP	51	192	2
TAP	51	264	2
TAP	51	288	3
TAP	51	360	3
XST	52	0	1
SLR	52	0	1	96	96	5
XST	52	96	7
SSR	52	96	7	96	144	3
TAP	53	0	2
TAP	53	96	2
TAP	53	192	5
TAP	53	264	5
TAP	53	288	4
TAP	53	360	4
XST	54	0	6
SLL	54	0	6	96	96	2
XST	54	96	0
SSL	54	96	0	96	144	4
HLD	55	0	6	96
HLD	55	96	4	96
HLD	55	192	3	96
HLD	55	288	1	96
HLD	56	0	6	96
HLD	56	96	4	96
HLD	56	192	2	96
HLD	56	288	0	96
TTP	57	0	0	C	1	M1
TAP	59	0	4
TAP	59	48	4
TAP	59	96	3
TAP	59	192	5
TAP	59	240	5
TAP	59	288	4
HLD	59	336	6	240
TAP	60	48	7
TAP	60	96	7
TTP	60	192	5	B	0	M1
TTP	60	192	5	E	0	M1
XTP	61	0	3
TAP	61	48	3
TAP	61	96	4
TAP	61	192	2
TAP	61	240	2
TAP	61	288	3
HLD	61	336	1	240
TAP	62	48	0
TAP	62	96	0
TTP	62	192	2	B	0	M1
TTP	62	192	3	E	0	M1
XTP	63	0	4
TAP	63	48	4
TAP	63	96	3
TAP	63	192	5
TAP	63	240	5
TAP	63	288	4
HLD	63	336	6	240
TAP	64	48	7
TAP	64	96	7
TTP	64	192	5	B	0	M1
TTP	64	192	5	E	0	M1
XTP	65	0	3
TAP	65	48	3
TAP	65	96	4
TAP	65	192	2
TAP	65	240	2
TAP	65	288	3
HLD	65	336	1	96
TAP	66	48	0
TAP	66	96	0
TAP	66	192	3
TAP	66	192	4
TAP	67	0	5
TAP	67	96	4
TAP	67	192	3
TAP	67	288	2
HLD	67	336	2	96
TAP	68	48	3
TAP	68	144	4
TAP	68	240	5
TAP	68	336	6
HLD	69	0	6	96
TAP	69	96	4
TAP	69	192	3
TAP	69	288	2
TAP	69	336	2
XTP	70	0	5
XTP	70	96	4
XTP	70	192	3
XTP	70	288	2
TTP	71	0	5	B	0	M1
TTP	71	96	6	B	0	M1
TTP	71	192	7	B	0	M1
TTP	71	288	0	B	0	M1
TTP	72	0	1	B	0	M1
TTP	72	96	2	B	0	M1
TTP	72	192	3	B	0	M1
TTP	72	288	4	B	0	M1
XHO	73	0	0	72
XHO	73	72	1	72
XTP	73	144	2
XHO	73	192	7	72
XHO	73	264	6	72
XTP	73	336	5
BST	74	0	5
SCR	74	0	5	96	480	4
THO	76	0	0	768	C	0	M1
TTP	79	0	5	E	0	M1
TTP	79	192	3	E	0	M1
XHO	80	0	4	960
TAP	80	96	3
TAP	80	192	3
TAP	80	288	3
TAP	81	0	3
TAP	81	96	3
TAP	81	192	3
TAP	81	288	3
TAP	82	0	2
TAP	82	96	1
TAP	82	192	0
TAP	82	288	7
XTP	83	0	1
XTP	83	0	6
XTP	83	48	1
XTP	83	48	6
XTP	83	192	3
XTP	83	192	4
TAP	83	288	0
TAP	83	288	7
BRK	84	0	2
BRK	84	0	5
TAP	84	96	6
TAP	84	144	7
TAP	84	192	0
TAP	84	192	5
TAP	84	288	3
TAP	84	288	4
STR	85	0	1
SI_	85	0	1	96	48	4
STR	85	96	5
SI_	85	96	5	96	48	0
STR	85	192	3
SI_	85	192	3	96	48	7
TAP	85	288	6
HLD	86	0	5	96
HLD	86	96	7	96
HLD	86	192	0	96
TAP	86	288	2
TAP	86	336	2
TAP	87	48	1
TAP	87	48	3
TAP	87	96	1
TAP	87	96	3
BRK	87	192	0
BRK	87	192	4
TAP	88	0	2
TAP	88	0	5
TAP	88	96	0
TAP	88	96	7
TAP	88	192	1
TAP	88	240	0
TAP	88	288	2
TAP	88	288	7
STR	89	0	5
SI_	89	0	5	96	48	2
STR	89	96	1
SI_	89	96	1	96	48	6
STR	89	192	3
SI_	89	192	3	96	48	7
TAP	89	288	0
TAP	90	0	1
TAP	90	0	5
TAP	90	96	0
TAP	90	96	6
TAP	90	144	0
TAP	90	144	6
TAP	90	240	2
TAP	90	240	4
BST	90	336	1
SXR	90	336	1	96	240	4
BRK	90	336	5
TAP	92	0	6
TAP	92	96	4
HLD	92	192	5	96
STR	92	288	4
SXL	92	288	4	96	192	4
SXR	92	288	4	96	192	4
TAP	94	0	5
TAP	94	96	4
HLD	94	192	6	96
STR	94	288	4
SUL	94	288	4	96	192	3
TAP	96	0	1
TAP	96	96	3
HLD	96	192	2	96
STR	96	288	3
SXL	96	288	3	96	192	3
SXR	96	288	3	96	192	3
TAP	98	0	1
TAP	98	96	2
TAP	98	192	3
TAP	98	192	4
TAP	98	288	3
TAP	98	288	4
TTP	99	0	0	C	0	M1
BRK	99	288	0
BRK	99	288	7
HLD	100	0	6	96
HLD	100	96	5	96
HLD	100	192	4	96
HLD	100	288	3	96
HLD	101	0	2	96
HLD	101	96	1	96
HLD	101	192	0	96
TAP	101	288	7
TAP	102	0	5
TAP	102	96	4
TAP	102	96	6
TAP	102	192	2
TAP	102	240	2
TAP	102	288	1
TAP	102	288	3
TAP	103	0	5
TAP	103	96	4
STR	103	96	6
SUL	103	96	6	96	96	2
HLD	104	0	1	96
HLD	104	96	2	96
HLD	104	192	3	96
HLD	104	288	4	96
HLD	105	0	5	96
HLD	105	96	6	96
HLD	105	192	7	96
TAP	105	288	0
TAP	106	0	2
TAP	106	96	1
TAP	106	96	3
TAP	106	192	5
STR	106	288	4
SCR	106	288	4	96	168	2
TAP	106	288	6
BRK	107	288	0
BRK	107	288	7
HLD	108	0	6	96
HLD	108	96	4	96
HLD	108	192	3	96
HLD	108	288	1	96
HLD	109	0	7	96
HLD	109	96	5	96
HLD	109	192	3	96
TAP	109	288	1
TAP	110	0	5
TAP	110	96	4
TAP	110	96	6
TAP	110	192	2
TAP	110	288	1
TAP	110	288	3
TAP	111	0	5
TAP	111	48	5
STR	111	96	4
SUL	111	96	4	96	96	0
TAP	111	96	6
XTP	112	0	0
XTP	112	0	7
XTP	112	96	5
XTP	112	96	6
XTP	112	192	3
XTP	112	192	4
XTP	112	288	1
XTP	112	288	2
XTP	113	0	0
XTP	113	0	7
XTP	113	96	5
XTP	113	96	6
XTP	113	192	3
XTP	113	192	4
XTP	113	288	1
XTP	113	288	2
TAP	114	0	0
TAP	114	96	1
TAP	114	96	7
TAP	114	144	1
TAP	114	144	7
TAP	114	240	2
STR	114	240	6
SCR	114	240	6	96	216	5
TTP	114	336	0	C	1	M1
TAP	116	0	4
TAP	116	0	5
BRK	116	96	6
TAP	116	192	0
TAP	116	192	7
TAP	116	288	1
TAP	117	0	2
TAP	117	0	3
TAP	117	96	2
TAP	117	96	3
TAP	117	192	1
TAP	117	192	4
TAP	117	288	4
TAP	118	0	2
TAP	118	0	3
TAP	118	96	1
TAP	118	192	0
TAP	118	192	7
TAP	118	288	6
TAP	119	0	4
TAP	119	0	5
TAP	119	96	4
TAP	119	96	5
TAP	119	192	3
TAP	119	192	6
TAP	119	288	2
TAP	120	0	0
TAP	120	0	1
TAP	120	96	2
TAP	120	192	3
TAP	120	192	4
TAP	120	288	5
TAP	121	0	6
TAP	121	0	7
TAP	121	96	6
TAP	121	96	7
TAP	121	192	0
TAP	121	192	5
TAP	121	288	1
HLD	122	0	4	96
TAP	122	96	3
TAP	122	192	3
TAP	122	192	4
TAP	122	240	3
TAP	122	240	4
XTP	122	336	3
XTP	122	336	5
XTP	123	48	2
XTP	123	48	4
XTP	123	144	1
XTP	123	144	6
XTP	123	240	0
XTP	123	240	7
XTP	123	288	0
XTP	123	288	7

T_REC_TAP	332
T_REC_BRK	17
T_REC_XTP	73
T_REC_HLD	71
T_REC_XHO	5
T_REC_STR	28
T_REC_BST	3
T_REC_XST	6
T_REC_TTP	26
T_REC_THO	1
T_REC_SLD	41
T_REC_ALL	603
T_NUM_TAP	465
T_NUM_BRK	20
T_NUM_HLD	77
T_NUM_SLD	41
T_NUM_ALL	603
T_JUDGE_TAP	485
T_JUDGE_HLD	224
T_JUDGE_SLD	41
T_JUDGE_ALL	750
TTM_EACHPAIRS	131
TTM_SCR_TAP	232500
TTM_SCR_BRK	52000
TTM_SCR_HLD	77000
TTM_SCR_SLD	61500
TTM_SCR_ALL	423000
TTM_SCR_S	408400
TTM_SCR_SS	421000
TTM_RAT_ACV	10047

