VERSION	0.00.00	1.03.00
FES_MODE	0
BPM_DEF	187.000	187.000	187.000	187.000
MET_DEF	4	4
RESOLUTION	384
CLK_DEF	384
COMPATIBLE_CODE	MA2

BPM	0	0	187.000
MET	0	0	4	4

TAP	1	0	5
TAP	1	96	5
TAP	1	192	4
TAP	1	288	4
TAP	2	0	3
TAP	2	96	3
TAP	2	192	2
TAP	2	192	4
TAP	3	0	1
TAP	3	96	1
TAP	3	192	0
TAP	3	288	0
TAP	4	0	7
TAP	4	96	7
TAP	4	192	0
TAP	4	192	7
TAP	5	0	6
TAP	5	96	6
TAP	5	192	7
TAP	5	288	7
TAP	6	0	0
TAP	6	96	0
TAP	6	192	1
TAP	6	192	7
TAP	7	0	2
TAP	7	96	2
TAP	7	192	3
TAP	7	288	3
XTP	8	0	3
XTP	8	0	4
XTP	8	96	3
XTP	8	96	4
XTP	8	192	2
XTP	8	192	5
STR	9	0	6
SI_	9	0	6	96	192	3
STR	10	0	2
SI_	10	0	2	96	192	7
STR	11	0	6
SI_	11	0	6	96	192	2
STR	12	0	1
SI_	12	0	1	96	192	5
HLD	13	0	6	192
TAP	13	192	7
HLD	14	0	1	192
TAP	14	192	0
HLD	15	0	6	192
TAP	15	192	7
HLD	16	0	0	96
HLD	16	0	1	96
TAP	16	192	0
TAP	16	192	1
TAP	17	0	2
TAP	17	96	2
TAP	17	192	3
TAP	18	0	5
TAP	18	96	5
TAP	18	192	4
TAP	19	0	2
TAP	19	96	2
TAP	19	192	3
TAP	20	0	4
TAP	20	96	4
TAP	20	192	3
TAP	20	192	5
TAP	21	0	6
TAP	21	96	6
TAP	21	192	7
TAP	22	0	1
TAP	22	96	1
TAP	22	192	0
TAP	23	0	6
TAP	23	96	6
TAP	23	192	7
TAP	24	0	0
TAP	24	96	7
TAP	24	192	1
TAP	24	192	6
TTP	25	0	2	E	0	L1
TTP	25	192	2	B	0	L1
TTP	26	0	3	B	0	L1
TTP	27	0	6	E	0	L1
TTP	27	192	5	B	0	L1
TTP	28	0	4	B	0	L1
XST	29	0	3
SCL	29	0	3	96	192	0
STR	30	0	7
SCL	30	0	7	96	192	4
TAP	31	0	2
TAP	31	96	2
TAP	31	192	1
TAP	31	288	1
XTP	32	0	0
XTP	32	0	7
TAP	32	288	0
TAP	32	288	7
BRK	33	0	6
TAP	33	96	6
TAP	33	192	6
TAP	33	192	7
TAP	33	288	6
TAP	33	288	7
TAP	34	0	1
TAP	34	96	1
TAP	34	192	0
TAP	34	192	1
TAP	34	288	0
TAP	34	288	1
TAP	35	0	2
TAP	35	96	2
TAP	35	192	3
TAP	35	288	3
TAP	36	0	4
TAP	36	96	4
TAP	36	192	3
TAP	36	192	5
TAP	37	0	2
TAP	37	96	2
TAP	37	192	2
TAP	37	192	3
TAP	37	288	2
TAP	37	288	3
TAP	38	0	5
TAP	38	96	5
TAP	38	192	4
TAP	38	192	5
TAP	38	288	4
TAP	38	288	5
TAP	39	0	6
TAP	39	96	7
TAP	39	192	0
STR	39	288	0
SCR	39	288	0	96	192	3
STR	39	288	7
SCL	39	288	7	96	192	4
STR	41	0	2
SI_	41	0	2	96	192	7
TAP	42	0	6
TAP	42	192	6
TAP	42	192	7
STR	43	0	5
SI_	43	0	5	96	192	0
TAP	44	0	1
TAP	44	192	0
TAP	44	192	1
STR	45	0	2
SCL	45	0	2	96	192	7
TAP	46	0	6
TAP	46	192	6
TAP	46	192	7
STR	47	0	5
SCR	47	0	5	96	192	0
TAP	48	0	1
BRK	49	0	7
TAP	49	96	7
STR	49	192	6
SSR	49	192	6	96	288	2
TAP	51	0	1
TAP	51	96	1
STR	51	192	0
SSL	51	192	0	96	288	4
TAP	53	0	5
TAP	53	96	5
STR	53	192	6
SLL	53	192	6	96	288	2
HLD	55	0	1	192
HLD	55	192	0	192
HLD	56	0	7	192
TAP	56	192	6
BRK	57	0	0
BRK	57	0	7
TTP	59	0	7	B	0	L1
TTP	59	0	7	E	0	L1
TTP	59	192	5	B	0	L1
TTP	59	192	5	E	0	L1
TTP	60	0	3	E	0	L1
TTP	60	96	2	B	0	L1
TTP	60	192	1	B	0	L1
TTP	61	0	7	B	0	L1
TTP	61	0	7	E	0	L1
TTP	61	192	5	B	0	L1
TTP	61	192	5	E	0	L1
TTP	62	0	1	B	0	L1
TTP	62	96	2	B	0	L1
TTP	62	192	3	E	0	L1
TTP	63	0	5	B	0	L1
TTP	63	0	6	E	0	L1
TTP	63	192	2	B	0	L1
TTP	63	192	2	E	0	L1
TTP	64	0	5	E	0	L1
TTP	64	96	4	E	0	L1
TTP	64	192	3	E	0	L1
TTP	65	0	1	B	0	L1
TTP	65	0	2	E	0	L1
TTP	65	192	6	B	0	L1
TTP	65	192	6	E	0	L1
TTP	66	0	1	E	0	L1
TTP	66	96	0	E	0	L1
TTP	66	192	7	E	0	L1
XHO	67	0	5	192
HLD	67	192	4	192
HLD	68	0	3	192
TAP	68	192	2
HLD	69	0	1	192
HLD	69	192	0	192
HLD	70	0	7	192
TAP	70	192	6
STR	71	0	5
SCR	71	0	5	96	192	0
STR	72	0	1
SCR	72	0	1	96	192	4
XTP	73	0	5
XTP	73	192	3
XTP	73	192	4
XST	74	0	2
SCL	74	0	2	96	384	5
TTP	76	0	5	B	0	L1
TTP	77	0	4	B	0	L1
TTP	78	0	3	B	0	L1
TTP	79	0	2	B	0	L1
TTP	80	0	1	B	0	L1
TTP	81	0	0	B	0	L1
TTP	82	0	0	C	0	L1
XTP	83	0	0
XTP	83	0	7
TAP	83	288	0
TAP	83	288	7
BRK	84	0	6
TAP	84	96	6
TAP	84	96	7
TAP	84	192	6
TAP	84	288	6
TAP	84	288	7
TAP	85	0	1
TAP	85	96	0
TAP	85	96	1
TAP	85	192	1
TAP	85	288	0
TAP	85	288	1
TAP	86	0	2
TAP	86	96	2
TAP	86	192	3
TAP	86	288	3
TAP	87	0	3
TAP	87	0	4
TAP	87	96	3
TAP	87	96	4
TAP	87	192	2
TAP	87	192	5
TAP	88	0	1
TAP	88	96	0
TAP	88	96	1
TAP	88	192	1
TAP	88	288	0
TAP	88	288	1
TAP	89	0	6
TAP	89	96	6
TAP	89	96	7
TAP	89	192	6
TAP	89	288	6
TAP	89	288	7
TAP	90	0	5
TAP	90	96	4
TAP	90	192	3
STR	90	288	3
SCL	90	288	3	96	192	0
STR	90	288	4
SCR	90	288	4	96	192	7
STR	92	0	1
SI_	92	0	1	96	192	4
TAP	93	0	5
TAP	93	192	4
TAP	93	192	5
STR	94	0	6
SI_	94	0	6	96	192	3
TAP	95	0	2
TAP	95	192	2
TAP	95	192	3
STR	96	0	1
SCR	96	0	1	96	192	4
TAP	97	0	5
TAP	97	192	4
TAP	97	192	5
STR	98	0	6
SCL	98	0	6	96	192	3
TAP	99	0	2
BST	100	0	0
SI_	100	0	0	96	192	3
STR	101	0	4
SI_	101	0	4	96	192	0
TAP	102	0	1
TAP	102	96	1
TAP	102	192	0
TAP	102	192	1
TAP	103	0	6
TAP	103	96	6
TAP	103	192	6
TAP	103	192	7
STR	104	0	5
SI_	104	0	5	96	192	0
STR	105	0	1
SI_	105	0	1	96	192	5
TAP	106	0	6
TAP	106	96	6
TAP	106	192	6
TAP	106	192	7
TAP	107	0	1
TAP	107	96	1
TAP	107	192	0
TAP	107	192	1
STR	108	0	2
SCL	108	0	2	96	192	7
STR	109	0	6
SUL	109	0	6	96	192	2
TAP	110	0	1
TAP	110	96	1
TAP	110	192	0
TAP	110	192	1
TAP	111	0	6
TAP	111	96	6
TAP	111	192	6
TAP	111	192	7
STR	112	0	5
SCR	112	0	5	96	192	0
STR	113	0	1
SUR	113	0	1	96	192	5
TAP	114	0	6
TAP	114	96	7
TAP	114	192	0
STR	114	288	0
SI_	114	288	0	96	192	3
STR	114	288	7
SI_	114	288	7	96	192	4
TAP	116	0	2
BRK	116	96	2
TAP	116	192	3
TAP	116	288	3
TAP	117	0	4
TAP	117	96	4
TAP	117	192	3
TAP	117	192	5
TAP	118	0	6
TAP	118	96	6
TAP	118	192	7
TAP	118	288	7
TAP	119	0	0
TAP	119	96	0
TAP	119	192	0
TAP	119	192	7
TAP	120	0	1
TAP	120	96	1
TAP	120	192	0
TAP	120	288	0
TAP	121	0	7
TAP	121	96	7
TAP	121	192	0
TAP	121	192	6
TAP	122	0	7
HLD	122	96	7	96
TAP	122	192	0
XTP	122	288	0
XTP	122	288	7
XTP	122	336	0
XTP	122	336	7
XTP	123	48	1
XTP	123	48	6
XTP	123	144	2
XTP	123	144	5
XTP	123	240	3
XTP	123	240	4
XTP	123	288	3
XTP	123	288	4

T_REC_TAP	217
T_REC_BRK	6
T_REC_XTP	25
T_REC_HLD	14
T_REC_XHO	1
T_REC_STR	31
T_REC_BST	1
T_REC_XST	2
T_REC_TTP	41
T_REC_THO	0
T_REC_SLD	34
T_REC_ALL	372
T_NUM_TAP	316
T_NUM_BRK	7
T_NUM_HLD	15
T_NUM_SLD	34
T_NUM_ALL	372
T_JUDGE_TAP	323
T_JUDGE_HLD	54
T_JUDGE_SLD	34
T_JUDGE_ALL	411
TTM_EACHPAIRS	60
TTM_SCR_TAP	158000
TTM_SCR_BRK	18200
TTM_SCR_HLD	15000
TTM_SCR_SLD	51000
TTM_SCR_ALL	242200
TTM_SCR_S	234300
TTM_SCR_SS	241500
TTM_RAT_ACV	10028

