VERSION	0.00.00	1.03.00
FES_MODE	0
BPM_DEF	187.000	187.000	187.000	187.000
MET_DEF	4	4
RESOLUTION	384
CLK_DEF	384
COMPATIBLE_CODE	MA2

BPM	0	0	187.000
MET	0	0	4	4

TAP	5	0	0
TAP	7	0	7
TAP	9	0	0
TAP	10	0	0
TAP	11	0	1
TAP	12	0	1
TAP	13	0	2
TAP	14	0	2
TAP	15	0	3
TAP	16	0	3
TAP	16	0	4
TAP	17	0	4
TAP	18	0	4
TAP	19	0	5
TAP	20	0	5
TAP	21	0	6
TAP	22	0	6
TAP	23	0	7
TAP	24	0	0
TAP	24	0	7
TTP	25	0	7	B	0	L1
TTP	26	0	0	B	0	L1
TTP	27	0	6	B	0	L1
TTP	28	0	1	B	0	L1
TTP	29	0	5	B	0	L1
TTP	30	0	2	B	0	L1
THO	31	0	0	384	C	0	L1
XTP	33	0	7
TAP	33	192	7
TAP	34	0	7
TAP	35	0	6
TAP	35	192	6
TAP	36	0	6
TAP	37	0	5
TAP	37	192	5
TAP	38	0	5
TAP	39	0	4
TAP	39	192	4
TAP	40	0	3
TAP	40	0	4
TAP	41	0	3
TAP	42	0	2
TAP	42	0	3
TAP	43	0	1
TAP	44	0	0
TAP	44	0	1
TAP	45	0	7
TAP	46	0	0
TAP	46	0	7
HLD	47	0	0	384
HLD	47	0	7	384
STR	49	0	0
SI_	49	0	0	96	288	3
STR	51	0	7
SI_	51	0	7	96	288	4
STR	53	0	0
SI_	53	0	0	96	288	4
STR	55	0	7
SI_	55	0	7	96	288	3
BRK	57	0	0
HLD	59	0	0	384
HLD	61	0	1	384
HLD	63	0	2	384
HLD	65	0	3	384
HLD	65	0	4	384
TAP	67	0	4
TAP	67	192	4
TAP	68	0	4
TAP	68	192	4
TAP	69	0	5
TAP	69	192	5
TAP	70	0	4
TAP	70	0	5
TAP	71	0	6
TAP	71	192	6
TAP	72	0	6
TAP	72	192	6
TAP	73	0	7
TAP	73	192	7
HLD	74	0	0	384
HLD	74	0	7	384
TTP	76	0	0	B	0	L1
TTP	76	0	7	B	0	L1
TTP	77	0	1	B	0	L1
TTP	77	0	6	B	0	L1
TTP	78	0	2	B	0	L1
TTP	78	0	5	B	0	L1
TTP	79	0	3	B	0	L1
TTP	79	0	4	B	0	L1
TTP	80	0	2	B	0	L1
TTP	80	0	5	B	0	L1
TTP	81	0	1	B	0	L1
TTP	81	0	6	B	0	L1
THO	82	0	0	384	C	0	L1
TAP	84	0	7
TAP	84	192	7
TAP	85	0	6
TAP	85	96	6
TAP	85	192	6
TAP	86	0	5
TAP	86	192	5
TAP	87	0	4
TAP	87	96	4
TAP	87	192	3
TAP	87	192	4
TAP	88	0	3
TAP	88	192	3
TAP	89	0	2
TAP	89	96	2
TAP	89	192	2
TAP	90	0	1
TAP	90	192	1
TAP	91	0	0
TAP	91	0	7
TAP	91	96	0
TAP	91	96	7
XTP	91	192	0
XTP	91	192	7
TAP	92	0	0
TAP	92	192	1
TAP	93	0	0
TAP	93	0	1
TAP	93	192	0
TAP	93	192	1
TAP	94	0	2
TAP	94	192	3
TAP	95	0	2
TAP	95	0	3
TAP	95	192	2
TAP	95	192	3
TAP	96	0	4
TAP	96	192	5
TAP	97	0	4
TAP	97	0	5
TAP	97	192	4
TAP	97	192	5
TAP	98	0	6
TAP	98	192	7
BRK	99	0	0
TAP	100	0	7
TAP	100	192	7
TAP	101	0	6
TAP	101	192	5
TAP	102	0	4
TAP	102	192	4
TAP	103	0	3
TAP	103	0	4
TAP	103	192	3
TAP	103	192	4
TAP	104	0	2
TAP	104	192	2
TAP	105	0	1
TAP	105	192	0
TAP	106	0	7
TAP	106	192	7
TAP	107	0	0
TAP	107	0	7
TAP	107	192	0
TAP	107	192	7
TAP	108	0	0
TAP	108	192	1
TAP	109	0	2
TAP	109	96	2
TAP	109	192	2
TAP	110	0	3
TAP	110	192	4
TAP	111	0	3
TAP	111	0	4
TAP	111	96	3
TAP	111	96	4
TAP	111	192	3
TAP	111	192	4
TAP	112	0	5
TAP	112	192	6
TAP	113	0	7
TAP	113	96	7
TAP	113	192	7
TAP	114	0	0
TAP	114	96	0
TAP	114	192	0
TAP	115	0	0
TAP	115	0	7
TAP	115	96	0
TAP	115	96	7
XTP	115	192	0
XTP	115	192	7
HLD	116	0	7	192
TAP	117	0	7
TAP	117	192	6
HLD	118	0	5	192
TAP	119	0	5
TAP	119	192	3
TAP	119	192	4
HLD	120	0	2	192
TAP	121	0	2
TAP	121	192	0
TAP	121	192	1
TAP	122	0	7
TAP	122	96	7
TAP	122	192	0
STR	122	288	0
SI_	122	288	0	96	288	4

T_REC_TAP	153
T_REC_BRK	2
T_REC_XTP	5
T_REC_HLD	12
T_REC_XHO	0
T_REC_STR	5
T_REC_BST	0
T_REC_XST	0
T_REC_TTP	18
T_REC_THO	2
T_REC_SLD	5
T_REC_ALL	202
T_NUM_TAP	181
T_NUM_BRK	2
T_NUM_HLD	14
T_NUM_SLD	5
T_NUM_ALL	202
T_JUDGE_TAP	183
T_JUDGE_HLD	100
T_JUDGE_SLD	5
T_JUDGE_ALL	288
TTM_EACHPAIRS	32
TTM_SCR_TAP	90500
TTM_SCR_BRK	5200
TTM_SCR_HLD	14000
TTM_SCR_SLD	7500
TTM_SCR_ALL	117200
TTM_SCR_S	113500
TTM_SCR_SS	117000
TTM_RAT_ACV	10017

