VERSION	0.00.00	1.03.00
FES_MODE	0
BPM_DEF	186.000	186.000	186.000	186.000
MET_DEF	4	4
RESOLUTION	384
CLK_DEF	288
COMPATIBLE_CODE	MA2

BPM	0	0	186.000
MET	0	0	4	3

XTP	2	96	0
TAP	2	104	1
TAP	2	104	7
TAP	2	112	2
TAP	2	112	6
TAP	2	120	3
TAP	2	120	5
HLD	2	128	4	256
HLD	3	0	3	288
HLD	3	288	5	288
HLD	4	192	2	288
HLD	5	96	3	288
HLD	6	0	4	288
HLD	6	288	5	288
THO	7	192	0	288	C	0	M1
HLD	8	96	6	192
TTP	9	0	5	B	0	M1
HLD	9	0	5	192
TTP	9	288	4	B	0	M1
HLD	9	288	4	192
TTP	10	192	3	B	0	M1
HLD	10	192	3	192
TTP	11	96	2	B	0	M1
HLD	11	96	2	192
TTP	12	0	1	B	0	M1
HLD	12	0	1	192
TTP	12	288	0	B	0	M1
HLD	12	288	0	192
THO	13	192	0	288	C	1	M1
TAP	13	192	7
STR	14	0	6
SI_	14	0	6	96	48	2
TTP	14	97	6	B	0	M1
TTP	14	99	2	B	0	M1
TAP	14	288	3
TAP	14	288	4
TAP	15	0	2
TAP	15	48	2
TAP	15	96	4
TAP	15	192	3
TAP	15	192	5
TAP	15	288	2
TAP	15	288	4
TAP	16	0	5
TAP	16	48	5
TAP	16	96	3
TAP	16	192	2
TAP	16	208	3
TAP	16	224	2
TAP	16	240	3
TAP	17	0	2
TAP	17	96	3
TAP	17	192	2
TAP	17	192	4
TAP	17	288	3
TAP	17	288	5
TAP	18	0	5
TAP	18	48	5
TAP	18	96	4
TAP	18	192	2
TAP	18	192	4
TAP	18	288	3
TAP	18	288	5
TAP	19	0	2
TAP	19	48	2
TAP	19	96	3
TAP	19	192	5
TAP	19	208	4
TAP	19	224	5
TAP	19	240	4
TAP	20	0	3
TAP	20	0	4
XHO	20	96	1	96
TAP	20	96	3
TAP	20	192	3
TAP	20	288	2
TAP	20	288	4
TAP	21	0	3
TAP	21	0	5
TAP	21	48	5
TAP	21	96	3
TAP	21	96	5
TAP	21	192	4
TAP	21	192	5
TAP	21	288	4
HLD	21	288	6	96
TAP	22	0	4
TAP	22	96	3
TAP	22	96	4
TAP	22	192	2
TAP	22	208	3
TAP	22	224	2
TAP	22	240	3
TAP	22	288	3
TAP	22	288	4
TAP	23	0	4
TAP	23	0	5
TAP	23	48	4
XHO	23	96	4	96
TAP	23	96	6
TAP	23	192	5
TAP	23	240	5
TAP	23	288	2
TAP	23	336	3
TAP	24	0	1
XHO	24	0	4	96
TAP	24	96	3
TAP	24	144	3
TAP	24	192	3
TAP	24	192	7
TAP	24	240	3
TAP	24	240	7
XTP	24	288	2
TAP	24	312	6
TAP	24	336	1
TAP	24	360	5
XTP	25	0	0
TAP	25	24	4
TAP	25	48	7
TAP	25	72	3
XTP	25	96	0
TAP	25	120	4
TAP	25	144	1
TAP	25	168	5
XST	25	192	2
SI_	25	192	2	96	48	7
XST	25	192	6
SI_	25	192	6	96	48	3
XTP	25	288	2
XTP	25	288	6
XTP	26	0	0
XTP	26	0	4
TAP	26	96	2
STR	26	96	5
SUL	26	96	5	96	192	3
TAP	26	192	2
TAP	26	288	2
TAP	27	0	1
TAP	27	48	1
TAP	27	72	2
TAP	27	96	3
TAP	27	144	3
TAP	27	192	4
TAP	27	240	4
STR	27	288	1
SI_	27	288	1	96	48	5
TAP	27	336	1
STR	28	0	7
SI_	28	0	7	96	48	3
TAP	28	48	7
TAP	28	96	0
TAP	28	144	0
TAP	28	192	1
TAP	28	240	1
TAP	28	264	2
TAP	28	288	3
TAP	28	336	3
TAP	29	0	4
TAP	29	48	4
TAP	29	96	2
STR	29	96	5
SUL	29	96	5	96	192	3
TAP	29	192	2
TAP	29	288	2
TAP	30	0	1
TAP	30	48	1
TAP	30	72	2
TAP	30	96	3
TAP	30	144	3
TAP	30	192	4
TAP	30	240	4
TAP	30	288	3
HLD	30	288	5	192
TAP	31	0	4
TAP	31	96	3
TAP	31	144	2
TAP	31	192	1
TAP	31	192	3
TAP	31	240	4
TAP	31	288	3
TAP	31	288	5
TAP	31	336	6
TAP	32	0	0
TAP	32	24	7
TAP	32	48	1
TAP	32	72	6
XST	32	96	2
SUR	32	96	2	96	192	4
TAP	32	192	5
TAP	32	288	5
TAP	33	0	6
TAP	33	48	6
TAP	33	72	5
TAP	33	96	4
TAP	33	144	4
TAP	33	192	3
TAP	33	240	3
STR	33	288	6
SI_	33	288	6	96	48	2
TAP	33	336	6
STR	34	0	0
SI_	34	0	0	96	48	4
TAP	34	48	0
TAP	34	96	7
TAP	34	144	7
TAP	34	192	6
TAP	34	240	6
TAP	34	264	5
TAP	34	288	4
TAP	34	336	4
TAP	35	0	3
STR	35	0	6
SI_	35	0	6	96	48	3
STR	35	96	1
SUR	35	96	1	96	192	4
XTP	35	96	6
TAP	35	192	5
TAP	35	240	5
TAP	35	288	5
TAP	35	336	5
XTP	36	0	6
TAP	36	48	6
TAP	36	96	5
TAP	36	144	5
TAP	36	192	3
TAP	36	192	4
TAP	36	240	2
TAP	36	264	3
HLD	36	288	1	48
TAP	36	336	7
TAP	36	352	6
TAP	36	368	5
HLD	37	0	4	48
TAP	37	48	6
TAP	37	64	5
TAP	37	80	4
HLD	37	96	3	48
TAP	37	144	7
XTP	37	192	6
TAP	37	224	4
TAP	37	256	5
XTP	37	288	1
TAP	37	320	3
TAP	37	352	2
XTP	38	0	6
TAP	38	32	7
TAP	38	64	5
XTP	38	96	0
XTP	38	96	4
TAP	38	192	3
TAP	38	192	4
STR	38	240	5
SCR	38	240	5	96	48	7
STR	38	288	7
SCR	38	288	7	96	48	1
STR	38	336	1
SCR	38	336	1	96	48	3
STR	39	0	3
SCR	39	0	3	96	96	7
TAP	39	96	7
TAP	39	144	0
TAP	39	192	1
TAP	39	288	4
TAP	39	288	6
TAP	40	0	3
TAP	40	0	4
STR	40	48	2
SCL	40	48	2	96	48	0
STR	40	96	0
SCL	40	96	0	96	48	6
STR	40	144	6
SCL	40	144	6	96	48	4
STR	40	192	4
SCL	40	192	4	96	96	0
TAP	40	288	0
TAP	40	336	7
TAP	41	0	6
STR	41	96	1
SI_	41	96	1	96	48	5
STR	41	144	5
SLL	41	144	5	96	96	7
TAP	41	192	1
TAP	41	240	7
TAP	41	288	6
TAP	41	336	5
HLD	42	0	4	96
TAP	42	96	0
TAP	42	144	1
TAP	42	168	3
TAP	42	192	2
TAP	42	240	4
TAP	42	240	5
TAP	42	288	3
STR	42	288	6
SI_	42	288	6	96	48	2
TAP	42	336	6
STR	43	0	1
SI_	43	0	1	96	48	5
TAP	43	0	6
TAP	43	48	1
TAP	43	96	1
STR	43	96	7
SCL	43	96	7	96	48	4
SCR	43	96	7	96	48	2
XST	43	192	7
SF_	43	192	7	96	48	3
XTP	43	288	7
XTP	44	0	1
XTP	44	0	5
XTP	44	96	2
XTP	44	96	6
TAP	44	192	3
TAP	44	192	4
STR	44	240	5
SCR	44	240	5	96	48	7
STR	44	288	7
SCR	44	288	7	96	48	1
STR	44	336	1
SCR	44	336	1	96	48	3
STR	45	0	3
SCR	45	0	3	96	96	7
TAP	45	96	7
TAP	45	144	0
TAP	45	192	1
TAP	45	240	2
TAP	45	288	3
TAP	45	288	5
TAP	46	0	3
TAP	46	0	4
STR	46	48	2
SCL	46	48	2	96	48	0
STR	46	96	0
SCL	46	96	0	96	48	6
STR	46	144	6
SCL	46	144	6	96	48	4
STR	46	192	4
SCL	46	192	4	96	96	0
TAP	46	288	0
TAP	46	336	7
TAP	47	0	6
TAP	47	48	5
STR	47	96	1
SI_	47	96	1	96	48	5
STR	47	144	5
SLL	47	144	5	96	96	7
TAP	47	192	1
TAP	47	240	7
TAP	47	288	6
TAP	47	336	5
STR	48	0	0
SI_	48	0	0	96	48	4
STR	48	48	4
SLL	48	48	4	96	96	6
TAP	48	96	0
TAP	48	144	6
TAP	48	192	5
TAP	48	240	4
TAP	48	288	0
HLD	48	288	4	288
TAP	48	336	0
TAP	49	0	0
TAP	49	48	0
TAP	49	96	0
TAP	49	144	0
XTP	49	192	0
TAP	49	204	7
TAP	49	216	6
TAP	49	228	5
TAP	49	240	4
TAP	49	252	3
TAP	49	264	2
TAP	49	276	1
XTP	49	288	0
TAP	49	300	7
TAP	49	312	6
TAP	49	324	5
TAP	49	336	4
TAP	49	348	3
TAP	49	360	2
TAP	49	372	1
BRK	50	0	0
BRK	50	0	7
XTP	50	96	2
XTP	50	96	5
TAP	50	160	3
TAP	50	192	4
TAP	50	224	3
TAP	50	256	4
TAP	50	288	3
TAP	50	324	4
TAP	50	348	3
TAP	50	372	4
TAP	51	12	3
TAP	51	36	4
TAP	51	60	3
TAP	51	78	4
TAP	51	96	3
TAP	51	116	4
TAP	51	136	3
TAP	51	160	4
TAP	51	180	3
TAP	51	200	4
TAP	51	224	3
TAP	51	244	4
TAP	51	264	3
TAP	51	288	4
TAP	51	312	3
TAP	51	336	4
TAP	51	360	3
TAP	52	0	4
TAP	52	32	3
TAP	52	64	4
TAP	52	96	3
TAP	52	144	4
HLD	52	192	3	72
TAP	52	264	4
TAP	52	336	3
TAP	52	336	4
TAP	53	0	1
TAP	53	0	6
XST	53	96	0
SCL	53	96	0	96	72	4
XTP	53	96	7
TAP	53	192	0
TAP	53	192	2
TAP	53	240	2
TAP	53	288	3
TAP	53	336	4
TAP	54	0	5
STR	54	0	7
SCR	54	0	7	96	72	3
TAP	54	96	5
TAP	54	96	7
TAP	54	144	5
TAP	54	192	4
TAP	54	240	3
STR	54	288	0
SCL	54	288	0	96	72	4
TAP	54	288	2
TAP	55	0	0
TAP	55	0	1
TAP	55	48	1
TAP	55	72	2
TAP	55	96	3
TAP	55	144	3
STR	55	192	3
SI_	55	192	3	96	48	7
HLD	55	192	4	96
TAP	55	288	3
TAP	55	336	4
TAP	56	0	1
TAP	56	0	5
TAP	56	48	2
TAP	56	96	3
STR	56	96	7
SCR	56	96	7	96	72	3
TAP	56	192	6
TAP	56	192	7
TAP	56	240	5
TAP	56	288	4
TAP	56	336	3
HLD	57	0	3	96
STR	57	0	4
SI_	57	0	4	96	48	0
TAP	57	96	4
TAP	57	144	3
TAP	57	192	2
TAP	57	192	6
TAP	57	240	5
STR	57	288	1
SI_	57	288	1	96	48	3
STR	57	336	3
SLL	57	336	3	96	96	7
STR	58	0	1
SLL	58	0	1	96	96	3
TAP	58	48	7
TAP	58	96	6
TAP	58	144	5
XST	58	192	4
SI_	58	192	4	96	48	7
XST	58	288	1
SI_	58	288	1	96	48	4
TAP	58	288	4
XTP	59	0	0
TAP	59	0	1
XST	59	96	4
SCL	59	96	4	96	72	0
XTP	59	96	6
TAP	59	192	4
TAP	59	192	5
TAP	59	240	6
TAP	59	288	7
TAP	59	336	0
TAP	60	0	1
STR	60	0	3
SCR	60	0	3	96	72	7
TAP	60	96	2
TAP	60	96	3
TAP	60	144	1
TAP	60	192	0
TAP	60	240	7
XST	60	288	4
SCL	60	288	4	96	72	0
TAP	60	288	6
TAP	61	0	4
TAP	61	0	5
TAP	61	48	6
TAP	61	96	7
TAP	61	144	0
HLD	61	192	1	192
TAP	61	192	4
TAP	61	288	3
TAP	61	336	3
TAP	62	0	3
TAP	62	48	3
XTP	62	96	2
TAP	62	96	4
TAP	62	144	5
TAP	62	168	4
TAP	62	192	6
TAP	62	240	2
TAP	62	240	7
TAP	62	288	1
TAP	62	312	0
TAP	62	336	2
TAP	62	360	7
XHO	63	0	3	48
TAP	63	48	6
TAP	63	72	4
TAP	63	96	5
TAP	63	144	3
TAP	63	144	4
TAP	63	192	3
TAP	63	216	4
TAP	63	240	3
TAP	63	264	4
STR	63	288	1
SI_	63	288	1	96	48	3
XTP	63	288	6
XST	64	0	1
SI_	64	0	1	96	48	5
STR	64	0	7
SI_	64	0	7	96	48	2
TAP	64	96	1
XST	64	96	7
SCL	64	96	7	96	48	4
XST	64	192	3
SI_	64	192	3	96	48	1
STR	64	192	7
SI_	64	192	7	96	48	3
XTP	64	288	3
STR	64	288	7
SI_	64	288	7	96	48	5
STR	65	0	0
SF_	65	0	0	96	48	4
XTP	65	0	7
XTP	65	96	0
TTP	65	98	0	C	1	M1
TAP	68	0	3
TAP	68	0	4
HLD	68	96	2	96
XTP	68	96	5
TAP	68	192	1
TAP	68	288	3
TAP	68	288	4
XTP	69	0	2
HLD	69	0	5	96
TAP	69	96	6
TAP	69	192	3
TAP	69	192	4
XTP	69	288	6
TAP	69	320	4
TAP	69	352	5
XTP	70	0	0
TAP	70	32	2
TAP	70	64	1
XTP	70	96	7
TAP	70	108	6
TAP	70	120	5
TAP	70	132	4
TAP	70	144	3
TAP	70	156	2
TAP	70	168	1
TAP	70	180	0
XTP	70	192	1
XTP	70	192	7
XTP	70	204	2
XTP	70	204	6
XTP	70	216	3
XTP	70	216	5
XTP	70	228	4
XTP	70	288	0
XTP	70	288	6
TAP	70	300	1
TAP	70	300	5
TAP	70	312	2
TAP	70	312	4
TAP	70	324	3
XTP	71	0	1
XTP	71	0	7
STR	71	96	2
SI_	71	96	2	96	48	6
STR	71	96	6
SI_	71	96	6	96	48	3
TAP	71	144	3
TAP	71	144	7
STR	71	192	2
SCR	71	192	2	96	48	5
STR	71	192	6
SCR	71	192	6	96	48	1
XTP	71	288	2
XST	71	288	6
SI_	71	288	6	96	48	2
STR	72	0	3
SI_	72	0	3	96	48	7
TAP	72	0	6
TAP	72	96	3
TAP	72	96	4
TAP	72	144	5
TAP	72	192	0
TAP	72	192	6
XST	72	288	1
SI_	72	288	1	96	48	4
XST	72	288	5
SI_	72	288	5	96	48	1
TAP	72	336	0
TAP	72	336	4
STR	73	0	1
SCL	73	0	1	96	48	6
STR	73	0	5
SCL	73	0	5	96	48	2
XST	73	96	1
SI_	73	96	1	96	48	5
XTP	73	96	5
TAP	73	192	1
STR	73	192	4
SI_	73	192	4	96	48	7
TAP	73	288	2
TAP	73	288	4
TAP	73	336	1
TAP	74	0	0
TAP	74	48	7
TAP	74	96	4
STR	74	96	6
SI_	74	96	6	96	48	2
TAP	74	144	6
STR	74	192	5
SI_	74	192	5	96	48	1
TAP	74	240	5
STR	74	288	4
SI_	74	288	4	96	48	0
TAP	74	336	4
STR	75	0	3
SI_	75	0	3	96	48	7
TAP	75	48	3
STR	75	96	2
SI_	75	96	2	96	24	6
TAP	75	144	2
TAP	75	192	0
TAP	75	240	0
TAP	75	288	0
TAP	75	312	5
TAP	75	336	0
TAP	75	360	5
TAP	76	0	1
TAP	76	24	6
TAP	76	48	1
TAP	76	72	6
TAP	76	96	2
TAP	76	120	7
TAP	76	144	2
TAP	76	168	7
TAP	76	192	3
TAP	76	204	4
TAP	76	216	5
TAP	76	228	6
TAP	76	240	7
TAP	76	252	0
TAP	76	264	1
TAP	76	276	2
TAP	76	288	3
TAP	76	300	4
TAP	76	312	5
TAP	76	324	6
TAP	76	336	7
TAP	76	348	0
TAP	76	360	1
TAP	76	372	2
TAP	77	0	3
TAP	77	12	4
TAP	77	24	5
TAP	77	36	6
TAP	77	48	7
TAP	77	60	0
TAP	77	72	1
TAP	77	84	2
TTP	77	96	0	C	1	M1
XTP	77	96	3
HLD	80	96	2	192
HLD	80	288	3	96
HLD	81	0	5	192
HLD	81	192	4	96
HLD	81	288	3	96
HLD	82	0	2	96
STR	82	96	3
SUR	82	96	3	96	192	4
TAP	82	192	4
BRK	83	0	7
STR	83	96	6
SCL	83	96	6	96	48	3
STR	83	144	3
SI_	83	144	3	96	48	6
STR	83	192	6
SI_	83	192	6	96	48	1
STR	83	240	1
SCL	83	240	1	96	48	6
STR	83	288	2
SI_	83	288	2	96	48	6
TAP	83	336	2
STR	84	0	2
SCL	84	0	2	96	96	4
XTP	84	96	2
XTP	84	192	3
TAP	84	240	2
STR	84	288	1
SCR	84	288	1	96	48	4
STR	84	336	4
SI_	84	336	4	96	48	1
STR	85	0	1
SI_	85	0	1	96	48	6
STR	85	48	6
SCR	85	48	6	96	48	1
STR	85	96	5
SI_	85	96	5	96	48	1
TAP	85	144	5
STR	85	192	5
SCR	85	192	5	96	96	3
XTP	85	288	5
XTP	86	0	4
TAP	86	48	5
XTP	86	96	3
XHO	86	96	6	96
TAP	86	160	4
HLD	86	192	4	96
TAP	86	256	3
HLD	86	288	3	96
TAP	86	352	1
HLD	87	0	1	96
TAP	87	64	0
HLD	87	96	0	96
TAP	87	160	7
TAP	87	192	7
TAP	87	256	6
TAP	87	256	7
TAP	87	288	6
STR	87	288	7
SCR	87	288	7	96	192	4
TAP	88	0	5
TAP	88	48	5
TAP	88	96	5
TAP	88	144	5
STR	88	192	6
SI_	88	192	6	96	48	2
STR	88	288	1
SI_	88	288	1	96	48	5
TAP	88	288	6
TAP	89	0	1
TAP	89	0	6
TAP	89	96	4
TAP	89	120	3
TAP	89	144	4
TAP	89	168	3
TAP	89	192	4
TAP	89	216	3
TAP	89	240	4
TAP	89	264	3
TAP	89	288	4
TAP	89	312	3
TAP	89	336	4
TAP	89	360	3
XST	90	0	3
SI_	90	0	3	96	48	1
XST	90	0	4
SI_	90	0	4	96	48	6
XST	90	96	3
SI_	90	96	3	96	48	7
XST	90	96	4
SI_	90	96	4	96	48	0
XTP	90	192	3
XTP	90	192	4
XTP	90	288	0
XST	90	288	7
SI_	90	288	7	96	48	5
TAP	90	336	0
TAP	90	360	1
TAP	91	0	2
STR	91	0	7
SI_	91	0	7	96	48	3
TAP	91	48	2
TAP	91	96	2
TAP	91	96	7
TAP	91	120	1
TAP	91	144	0
STR	91	192	0
SI_	91	192	0	96	48	2
TAP	91	192	5
TAP	91	240	5
TAP	91	264	6
STR	91	288	0
SI_	91	288	0	96	48	4
TAP	91	288	7
TAP	91	336	7
TAP	92	0	0
TAP	92	0	7
TAP	92	24	6
TAP	92	48	5
TAP	92	96	2
STR	92	96	7
SCL	92	96	7	96	48	5
TAP	92	144	2
TAP	92	168	1
TAP	92	192	0
STR	92	192	7
SI_	92	192	7	96	48	3
TAP	92	240	0
TAP	92	288	0
TAP	92	288	7
TAP	92	312	1
TAP	92	336	2
TAP	93	0	1
TAP	93	0	5
TAP	93	48	1
TAP	93	72	3
TAP	93	96	2
TAP	93	120	5
TAP	93	144	4
TAP	93	168	6
TAP	93	192	0
TAP	93	216	7
TAP	93	240	0
TAP	93	264	7
STR	93	288	0
SCR	93	288	0	96	48	2
TAP	93	336	7
TAP	93	360	6
STR	94	0	0
SI_	94	0	0	96	48	4
TAP	94	0	5
TAP	94	48	5
TAP	94	96	0
TAP	94	96	5
TAP	94	120	6
TAP	94	144	7
TAP	94	192	0
TAP	94	192	7
TAP	94	240	1
TAP	94	264	3
TAP	94	288	2
TAP	94	312	4
TAP	94	336	3
TAP	94	360	5
TAP	95	0	7
TAP	95	24	6
TAP	95	48	7
TAP	95	72	6
XHO	95	96	0	0
TAP	95	96	5
TAP	95	128	1
TAP	95	160	2
XTP	95	192	3
XHO	95	192	7	0
TAP	95	224	6
TAP	95	256	5
XHO	95	288	3	0
TAP	95	288	4
TAP	95	320	2
TAP	95	352	1
STR	96	0	0
SCR	96	0	0	96	48	3
STR	96	0	4
SCR	96	0	4	96	48	7
STR	96	96	0
SI_	96	96	0	96	48	4
STR	96	96	4
SI_	96	96	4	96	48	0
TAP	96	192	0
TAP	96	192	4
STR	96	288	2
SI_	96	288	2	96	48	4
XTP	96	288	7
TAP	96	336	7
TAP	96	360	6
STR	97	0	2
SI_	97	0	2	96	48	0
TAP	97	0	5
TAP	97	48	5
TAP	97	96	2
TAP	97	96	5
TAP	97	120	6
TAP	97	144	7
TAP	97	192	2
STR	97	192	6
SI_	97	192	6	96	48	4
TAP	97	240	2
TAP	97	264	1
TAP	97	288	0
STR	97	288	6
SI_	97	288	6	96	48	0
TAP	97	336	0
TAP	98	0	0
TAP	98	0	6
TAP	98	24	1
TAP	98	48	2
STR	98	96	1
SI_	98	96	1	96	48	7
TAP	98	96	4
TAP	98	144	4
TAP	98	168	5
STR	98	192	1
SI_	98	192	1	96	48	3
TAP	98	192	6
TAP	98	240	6
TAP	98	288	1
TAP	98	288	6
TAP	98	312	5
TAP	98	336	4
XTP	99	0	3
XTP	99	0	4
TAP	99	48	6
TAP	99	72	3
XTP	99	96	4
TAP	99	120	1
TAP	99	144	5
TAP	99	168	2
XTP	99	192	7
TAP	99	216	0
TAP	99	240	7
TAP	99	264	0
XTP	99	288	6
TAP	99	312	4
TAP	99	336	5
TAP	99	360	1
TAP	100	0	3
TAP	100	24	2
TAP	100	48	6
TAP	100	72	4
TAP	100	96	5
TAP	100	120	1
TAP	100	144	3
TAP	100	168	2
XTP	100	192	7
TAP	100	216	5
TAP	100	240	6
TAP	100	264	0
TAP	100	288	2
TAP	100	312	1
TAP	100	336	7
TAP	100	360	5
TAP	101	0	6
TAP	101	24	0
TAP	101	48	2
TAP	101	72	1
XTP	101	96	7
TAP	101	108	6
TAP	101	120	5
TAP	101	132	4
XTP	101	144	1
TAP	101	156	2
TAP	101	168	3
TAP	101	180	4
XTP	101	192	6
TAP	101	204	5
TAP	101	216	4
TAP	101	228	3
XTP	101	240	0
TAP	101	252	1
TAP	101	264	2
TAP	101	276	3
XTP	101	288	6
TAP	101	300	5
TAP	101	312	4
TAP	101	324	3
TAP	101	336	2
TAP	101	348	1
TAP	101	360	0
TAP	101	372	7
XTP	102	0	6
TAP	102	12	5
TAP	102	24	4
TAP	102	36	3
TAP	102	48	2
TAP	102	60	1
TAP	102	72	0
TAP	102	84	7
XTP	102	96	6
TTP	102	96	7	E	0	M1
TAP	102	108	5
TTP	102	108	6	E	0	M1
TAP	102	120	4
TTP	102	120	5	E	0	M1
TAP	102	132	3
TTP	102	132	4	E	0	M1
TAP	102	144	2
TTP	102	144	3	E	0	M1
TAP	102	156	1
TTP	102	156	2	E	0	M1
TAP	102	168	0
TTP	102	168	1	E	0	M1
TTP	102	180	0	E	0	M1
TAP	102	180	7
XST	102	192	6
SI_	102	192	6	96	24	2
SF_	102	192	6	96	24	2
TTP	102	192	7	E	0	M1
TTP	102	288	0	C	1	M1
BRK	102	288	6

T_REC_TAP	637
T_REC_BRK	4
T_REC_XTP	74
T_REC_HLD	37
T_REC_XHO	8
T_REC_STR	94
T_REC_BST	0
T_REC_XST	22
T_REC_TTP	20
T_REC_THO	2
T_REC_SLD	118
T_REC_ALL	1016
T_NUM_TAP	847
T_NUM_BRK	4
T_NUM_HLD	47
T_NUM_SLD	118
T_NUM_ALL	1016
T_JUDGE_TAP	851
T_JUDGE_HLD	149
T_JUDGE_SLD	118
T_JUDGE_ALL	1118
TTM_EACHPAIRS	146
TTM_SCR_TAP	423500
TTM_SCR_BRK	10400
TTM_SCR_HLD	47000
TTM_SCR_SLD	177000
TTM_SCR_ALL	657900
TTM_SCR_S	637800
TTM_SCR_SS	657500
TTM_RAT_ACV	10006

