VERSION	0.00.00	1.03.00
FES_MODE	0
BPM_DEF	186.000	186.000	186.000	186.000
MET_DEF	4	4
RESOLUTION	384
CLK_DEF	288
COMPATIBLE_CODE	MA2

BPM	0	0	186.000
MET	0	0	4	3

BRK	2	96	0
TTP	2	96	0	C	1	M1
TAP	3	0	2
TTP	3	0	5	E	0	M1
TAP	3	96	2
TAP	3	192	3
TAP	3	288	4
TTP	3	288	6	E	0	M1
TAP	4	0	4
TAP	4	96	3
TAP	4	192	2
TTP	4	192	7	E	0	M1
TAP	5	0	5
TTP	5	96	0	E	0	M1
TAP	5	96	5
TAP	5	288	6
TTP	6	0	1	E	0	M1
TAP	6	0	5
TAP	6	96	5
TAP	6	192	4
TTP	6	288	2	E	0	M1
TAP	6	288	3
TAP	7	0	3
TAP	7	96	4
TTP	7	192	3	E	0	M1
TAP	7	192	5
TAP	8	96	2
TTP	8	96	4	E	0	M1
TAP	8	192	2
TAP	8	288	3
TAP	9	0	4
TTP	9	0	6	E	0	M1
TAP	9	96	4
TAP	9	192	3
TTP	9	288	0	E	0	M1
TAP	9	288	2
TAP	10	0	3
TAP	10	96	4
TTP	10	192	2	E	0	M1
TAP	10	192	5
TAP	11	0	2
TAP	11	0	3
TAP	11	96	1
TTP	11	96	4	E	0	M1
TAP	11	288	4
TAP	11	288	5
TTP	12	0	0	C	0	M1
TAP	12	0	6
TAP	12	192	3
TAP	12	192	4
TTP	12	288	0	B	0	M1
TTP	12	288	7	B	0	M1
TAP	13	0	2
TAP	13	0	5
TAP	13	96	3
TAP	13	96	4
THO	13	192	0	288	C	1	M1
TTP	13	192	2	B	0	M1
TTP	13	192	5	B	0	M1
TAP	14	288	1
TAP	14	336	1
TAP	15	0	3
TAP	15	96	2
TAP	15	192	6
TAP	15	240	6
TAP	15	288	4
TAP	16	0	2
TAP	16	48	4
TAP	16	96	4
TAP	16	192	3
TAP	16	192	5
TAP	16	288	2
TAP	16	288	4
TAP	17	0	3
TAP	17	0	6
TAP	17	96	4
TAP	17	144	4
TAP	17	192	3
TAP	17	288	1
TAP	17	336	1
TAP	18	0	3
TAP	18	96	2
HLD	18	192	3	96
TAP	18	288	4
TAP	19	0	6
TAP	19	48	4
TAP	19	96	4
TAP	19	192	2
TAP	19	288	1
TAP	19	336	3
TAP	20	0	3
XTP	20	96	4
XTP	20	96	5
TAP	20	192	3
TAP	20	192	6
TAP	20	288	2
TAP	20	336	2
XTP	21	0	3
TAP	21	96	1
TAP	21	96	4
TAP	21	192	5
TAP	21	240	5
XTP	21	288	4
TAP	22	0	6
TAP	22	0	7
TAP	22	96	0
TAP	22	96	1
XTP	22	192	2
XTP	22	192	3
TAP	22	288	5
TAP	22	336	4
TAP	23	0	3
TAP	23	0	6
XHO	23	96	5	48
TAP	23	192	4
XTP	23	192	6
XTP	23	288	7
TAP	23	336	7
XHO	24	0	2	48
XTP	24	96	1
TAP	24	96	3
XTP	24	192	0
TAP	24	240	0
XTP	24	288	7
XTP	24	336	7
XTP	25	0	1
XTP	25	48	1
XTP	25	96	6
XST	25	144	6
SUL	25	144	6	96	72	1
XTP	25	192	1
BRK	26	0	0
BRK	26	0	7
STR	26	96	1
SI_	26	96	1	96	48	4
STR	26	192	0
SI_	26	192	0	96	48	5
TAP	26	288	2
STR	27	0	7
SI_	27	0	7	96	48	2
STR	27	96	6
SI_	27	96	6	96	48	3
TAP	27	192	1
STR	27	288	0
SI_	27	288	0	96	48	4
STR	28	0	7
SI_	28	0	7	96	48	3
TAP	28	96	0
STR	28	192	1
SI_	28	192	1	96	48	5
STR	28	288	6
SI_	28	288	6	96	48	2
TAP	29	0	0
STR	29	96	1
SCR	29	96	1	96	48	4
STR	29	192	0
SCL	29	192	0	96	48	5
TAP	29	288	1
STR	30	0	0
SCR	30	0	0	96	48	3
STR	30	96	7
SCL	30	96	7	96	48	4
TAP	30	192	0
STR	30	288	7
SCR	30	288	7	96	48	2
STR	31	0	6
SCL	31	0	6	96	48	3
TAP	31	96	7
STR	31	192	1
SI_	31	192	1	96	48	5
STR	31	192	2
SI_	31	192	2	96	48	7
BRK	32	0	6
TAP	32	96	0
TAP	32	96	7
TAP	32	192	1
TAP	32	192	3
TAP	32	288	4
TAP	32	288	6
TAP	33	0	7
TAP	33	48	0
TAP	33	96	5
TAP	33	144	4
TAP	33	192	3
TAP	33	240	2
TAP	33	288	1
TAP	33	288	4
TAP	34	0	2
TAP	34	0	3
TAP	34	96	5
TAP	34	144	4
TAP	34	192	3
TAP	34	192	6
TAP	34	288	4
TAP	34	288	5
TAP	35	0	2
TAP	35	48	3
TAP	35	96	1
TAP	35	96	4
TAP	35	144	2
TAP	35	192	3
TAP	35	240	1
TAP	35	288	0
TAP	35	288	4
TAP	36	0	3
TAP	36	0	6
TAP	36	48	5
TAP	36	96	4
TAP	36	144	6
TAP	36	192	3
TAP	36	192	7
TAP	36	288	1
TAP	36	288	4
TAP	36	336	2
TAP	37	0	3
TAP	37	0	6
TAP	37	48	5
TAP	37	96	3
TAP	37	96	4
XTP	37	192	1
XTP	37	224	2
XTP	37	256	3
XTP	37	288	4
XTP	37	320	5
XTP	37	352	6
XST	38	0	7
SI_	38	0	7	96	48	3
XTP	38	32	0
XTP	38	64	1
TTP	38	96	0	C	1	M1
TAP	38	288	2
TAP	38	336	1
HLD	39	0	0	192
TAP	39	144	1
STR	39	192	1
SCR	39	192	1	96	144	7
TAP	39	288	0
TAP	40	96	2
TAP	40	144	2
TAP	40	192	1
HLD	40	192	3	96
HLD	40	288	4	96
STR	41	0	6
SCL	41	0	6	96	144	0
TAP	41	96	7
TAP	41	288	3
TAP	41	288	7
TAP	41	336	2
TAP	41	336	6
HLD	42	0	1	144
HLD	42	0	5	144
TAP	42	192	1
TAP	42	192	5
TAP	42	288	7
TAP	42	336	6
TAP	43	0	5
TAP	43	48	2
TAP	43	96	1
TAP	43	144	0
BST	43	192	7
SI_	43	192	7	96	48	3
BRK	43	288	3
BRK	44	0	1
BRK	44	0	5
HLD	44	96	2	96
HLD	44	96	6	96
TAP	44	240	2
TAP	44	240	6
TAP	44	288	3
TAP	44	336	4
HLD	45	0	1	96
HLD	45	0	5	96
TAP	45	144	1
TAP	45	144	5
STR	45	192	2
SXR	45	192	2	96	192	4
TAP	45	192	4
HLD	45	288	6	192
STR	46	192	1
SCL	46	192	1	96	96	6
STR	46	192	5
SUR	46	192	5	96	96	2
TAP	47	96	3
TAP	47	96	5
TAP	47	144	4
TAP	47	192	3
TAP	47	240	2
TAP	47	288	1
TAP	47	288	3
TAP	48	0	2
TAP	48	0	4
TAP	48	48	3
TAP	48	96	4
TAP	48	144	5
TAP	48	192	4
TAP	48	192	6
TAP	48	288	2
TAP	48	288	5
TAP	48	336	4
TAP	49	0	3
TAP	49	48	2
XST	49	96	1
SI_	49	96	1	96	48	4
XST	49	96	6
SI_	49	96	6	96	48	3
XTP	49	288	0
XTP	49	288	7
XTP	50	0	1
XTP	50	0	6
XHO	50	96	0	96
TAP	50	192	7
TAP	50	240	7
TAP	50	288	0
TAP	50	336	0
TAP	51	0	7
TAP	51	48	7
TAP	51	96	1
TAP	51	120	6
TAP	51	144	1
TAP	51	168	6
TAP	51	192	1
TAP	51	216	6
TAP	51	240	1
TAP	51	264	6
TAP	51	288	0
TAP	51	312	7
TAP	51	336	0
TAP	51	360	7
TAP	52	0	0
TAP	52	24	7
TAP	52	48	0
TAP	52	72	7
TAP	52	96	0
TAP	52	144	6
HLD	52	192	1	64
HLD	52	256	3	64
HLD	52	320	4	64
BRK	53	0	6
TAP	53	96	0
HLD	53	96	1	96
TAP	53	192	2
TAP	53	240	3
STR	53	288	2
SUL	53	288	2	96	192	0
TAP	53	288	4
TAP	54	0	7
TAP	54	96	5
TAP	54	192	3
HLD	54	288	6	96
TAP	54	288	7
TAP	55	0	5
TAP	55	48	4
TAP	55	96	3
STR	55	96	5
SUR	55	96	5	96	192	7
TAP	55	192	0
TAP	55	288	2
TAP	56	0	4
STR	56	96	6
SUL	56	96	6	96	96	2
TAP	56	192	0
TAP	56	240	0
XTP	56	288	1
STR	57	0	1
SUR	57	0	1	96	96	5
TAP	57	96	7
TAP	57	144	7
XTP	57	192	6
XHO	57	288	4	48
XHO	57	288	5	48
XHO	58	0	2	48
XHO	58	0	3	48
XST	58	96	0
SCR	58	96	0	96	48	3
XTP	58	96	7
BST	58	192	6
SI_	58	192	6	96	48	2
BST	58	288	1
SI_	58	288	1	96	48	5
BST	59	0	7
SCL	59	0	7	96	48	4
BRK	59	96	0
TAP	59	192	1
TAP	59	240	0
STR	59	288	1
SUR	59	288	1	96	192	3
TAP	59	288	7
TAP	60	0	4
TAP	60	96	6
TAP	60	192	0
TAP	60	288	4
HLD	60	288	5	96
TAP	61	0	6
TAP	61	48	7
TAP	61	96	0
STR	61	96	6
SUL	61	96	6	96	192	4
TAP	61	144	1
HLD	61	192	2	96
TAP	62	0	0
TAP	62	96	0
HLD	62	96	7	96
TAP	62	192	1
TAP	62	240	1
TAP	62	288	6
TAP	62	336	6
TAP	63	0	0
STR	63	0	7
SCL	63	0	7	96	48	4
STR	63	96	3
SCL	63	96	3	96	48	0
TAP	63	192	7
XTP	63	288	5
XTP	63	288	6
XTP	64	0	3
XTP	64	0	4
XTP	64	96	1
XTP	64	96	2
XTP	64	192	0
XTP	64	192	7
XTP	64	224	1
XTP	64	256	2
XTP	64	288	3
XTP	64	288	4
XTP	64	320	5
XTP	64	352	6
BRK	65	0	0
BRK	65	0	7
TTP	65	96	0	B	0	M1
TTP	65	96	0	C	1	M1
TTP	65	96	3	B	0	M1
TTP	65	96	4	B	0	M1
TTP	65	96	7	B	0	M1
TTP	66	0	7	E	0	M1
TTP	66	96	0	C	0	M1
TTP	66	192	3	E	0	M1
XHO	66	288	4	576
TTP	67	192	5	E	0	M1
TTP	67	288	0	C	0	M1
TTP	68	0	1	E	0	M1
XHO	68	96	2	288
XHO	69	0	6	288
TTP	69	96	4	E	0	M1
TTP	69	192	2	E	0	M1
XHO	69	288	0	288
TTP	70	0	0	E	0	M1
TTP	70	96	6	E	0	M1
BRK	70	192	4
BRK	70	288	2
BST	70	288	6
SI_	70	288	6	96	48	2
BRK	71	0	0
HLD	71	96	1	96
TAP	71	192	2
TAP	71	240	3
STR	71	288	4
SXL	71	288	4	96	192	4
HLD	72	0	2	96
TAP	72	192	3
TAP	72	288	2
HLD	72	288	5	96
TAP	73	0	2
TAP	73	48	1
STR	73	96	0
SXL	73	96	0	96	192	0
TAP	73	144	7
HLD	73	192	6	96
TAP	74	0	7
TAP	74	96	0
TAP	74	96	1
TAP	74	144	0
TAP	74	144	1
TAP	74	192	6
TAP	74	192	7
TAP	74	240	6
TAP	74	240	7
TAP	74	288	1
TAP	74	288	5
TAP	74	336	1
TAP	74	336	5
TAP	75	0	2
TAP	75	0	3
TAP	75	48	2
TAP	75	48	3
TAP	75	96	4
TAP	75	96	5
TAP	75	144	4
TAP	75	144	5
TAP	75	192	2
TAP	75	192	6
TAP	75	240	2
TAP	75	240	6
STR	75	288	1
SI_	75	288	1	96	48	4
TAP	75	336	1
STR	76	0	6
SI_	76	0	6	96	48	3
TAP	76	48	6
STR	76	96	0
SI_	76	96	0	96	48	4
TAP	76	144	0
STR	76	192	7
SI_	76	192	7	96	48	3
TAP	76	240	7
STR	76	288	1
SI_	76	288	1	96	48	5
TAP	76	336	1
STR	77	0	6
SI_	77	0	6	96	48	2
TAP	77	48	6
BRK	77	96	0
TTP	77	99	0	C	1	M1
HLD	78	0	1	288
HLD	78	288	2	288
HLD	79	192	3	288
HLD	80	96	4	288
HLD	81	0	5	288
HLD	81	288	6	288
XST	82	192	4
SI_	82	192	4	96	48	0
XST	82	288	7
SI_	82	288	7	96	48	3
BRK	83	0	2
TAP	83	96	1
TAP	83	96	5
TAP	83	192	2
TAP	83	192	6
STR	83	288	4
SXL	83	288	4	96	168	3
TAP	83	336	3
TAP	84	0	3
XTP	84	96	1
STR	84	192	2
SXR	84	192	2	96	192	4
TAP	84	240	4
TAP	84	288	4
XTP	85	0	5
STR	85	96	6
SXL	85	96	6	96	216	3
TAP	85	144	2
TAP	85	192	2
XTP	85	288	1
HLD	86	0	0	96
XST	86	96	2
SI_	86	96	2	96	48	6
XTP	86	128	2
XST	86	192	1
SI_	86	192	1	96	48	5
XTP	86	224	1
XST	86	288	0
SI_	86	288	0	96	48	4
XTP	86	320	0
XST	87	0	7
SI_	87	0	7	96	48	3
XTP	87	32	7
XST	87	96	6
SI_	87	96	6	96	48	2
XTP	87	128	6
XST	87	192	5
SI_	87	192	5	96	48	1
XTP	87	224	5
XTP	87	288	7
TAP	87	336	7
XTP	88	0	0
TAP	88	48	0
XTP	88	96	1
XTP	88	96	6
TAP	88	144	1
TAP	88	144	6
TAP	88	192	2
XTP	88	192	5
TAP	88	240	2
TAP	88	240	5
XTP	88	288	3
XTP	88	288	4
TAP	88	336	3
TAP	88	336	4
XST	89	0	3
SXR	89	0	3	96	240	0
XST	89	0	4
SXL	89	0	4	96	240	7
BRK	90	0	1
XTP	90	32	1
XTP	90	64	1
BRK	90	96	6
XTP	90	128	6
XTP	90	160	6
TTP	90	192	0	C	1	M1
TTP	90	192	3	B	0	M1
TTP	90	192	4	B	0	M1
HLD	90	288	7	96
TAP	91	0	0
TAP	91	48	1
TAP	91	96	7
TAP	91	144	6
HLD	91	192	0	96
TAP	91	288	2
TAP	91	336	3
TAP	92	0	0
TAP	92	48	1
HLD	92	96	7	96
TAP	92	192	5
TAP	92	240	4
TAP	92	288	7
TAP	92	336	6
STR	93	0	4
SI_	93	0	4	96	48	0
TAP	93	0	5
STR	93	96	7
SI_	93	96	7	96	48	3
XTP	93	192	1
TAP	93	288	0
TAP	93	336	0
TAP	94	0	3
TAP	94	48	1
TAP	94	96	5
TAP	94	144	4
TAP	94	192	7
TAP	94	240	7
TAP	94	288	4
TAP	94	336	6
TAP	95	0	2
TAP	95	48	3
TAP	95	96	0
TAP	95	144	7
TAP	95	192	1
TAP	95	192	6
TAP	95	240	1
TAP	95	240	6
TAP	95	288	2
TAP	95	288	5
TAP	95	336	2
TAP	95	336	5
XST	96	0	3
SV_	96	0	3	96	48	0
XST	96	0	4
SV_	96	0	4	96	48	7
BRK	96	192	1
BRK	96	192	6
HLD	96	288	0	96
TAP	96	288	4
TAP	97	0	2
TAP	97	48	3
TAP	97	96	1
TAP	97	144	2
TAP	97	192	3
HLD	97	192	7	96
TAP	97	288	5
TAP	97	336	4
TAP	98	0	6
TAP	98	48	5
HLD	98	96	0	96
TAP	98	96	4
TAP	98	192	7
TAP	98	240	6
TAP	98	288	0
TAP	98	336	1
TAP	99	0	2
XST	99	0	3
SI_	99	0	3	96	48	7
XST	99	96	0
SI_	99	96	0	96	48	4
BRK	99	192	6
XTP	99	288	3
XHO	99	288	5	96
TAP	100	0	6
TAP	100	48	7
TAP	100	96	0
TAP	100	144	1
XHO	100	192	2	96
XTP	100	192	4
TAP	100	288	1
TAP	100	336	0
TAP	101	0	7
TAP	101	48	6
XTP	101	96	3
XTP	101	96	5
TAP	101	144	5
XTP	101	192	1
XTP	101	192	4
TAP	101	240	1
XTP	101	288	3
XTP	101	288	7
TAP	101	336	7
XTP	102	0	2
XTP	102	0	6
TAP	102	32	1
TAP	102	64	0
XTP	102	96	7
TAP	102	128	6
TAP	102	160	5
XTP	102	192	4
TAP	102	224	3
TAP	102	256	2
XHO	102	288	1	1152
BST	102	288	5
SCR	102	288	5	96	1056	5

T_REC_TAP	375
T_REC_BRK	21
T_REC_XTP	78
T_REC_HLD	36
T_REC_XHO	14
T_REC_STR	42
T_REC_BST	6
T_REC_XST	19
T_REC_TTP	38
T_REC_THO	1
T_REC_SLD	67
T_REC_ALL	697
T_NUM_TAP	552
T_NUM_BRK	27
T_NUM_HLD	51
T_NUM_SLD	67
T_NUM_ALL	697
T_JUDGE_TAP	579
T_JUDGE_HLD	174
T_JUDGE_SLD	67
T_JUDGE_ALL	820
TTM_EACHPAIRS	112
TTM_SCR_TAP	276000
TTM_SCR_BRK	70200
TTM_SCR_HLD	51000
TTM_SCR_SLD	100500
TTM_SCR_ALL	497700
TTM_SCR_S	480150
TTM_SCR_SS	495000
TTM_RAT_ACV	10054

