VERSION	0.00.00	1.03.00
FES_MODE	0
BPM_DEF	186.000	186.000	186.000	186.000
MET_DEF	4	4
RESOLUTION	384
CLK_DEF	288
COMPATIBLE_CODE	MA2

BPM	0	0	186.000
MET	0	0	4	3

HLD	2	96	2	288
HLD	3	0	3	288
HLD	3	288	4	288
TAP	4	192	5
HLD	5	96	6	288
HLD	6	0	7	288
HLD	6	288	0	288
TAP	7	192	1
HLD	8	96	2	192
HLD	8	96	3	192
TAP	9	0	2
TAP	9	0	3
HLD	9	288	4	192
HLD	9	288	5	192
TAP	10	192	4
TAP	10	192	5
HLD	11	96	6	192
HLD	11	96	7	192
TAP	12	0	6
TAP	12	0	7
STR	12	288	0
SCR	12	288	0	96	192	3
STR	12	288	7
SCL	12	288	7	96	192	4
TTP	14	96	0	C	1	L1
TTP	15	0	2	E	0	L1
TTP	15	96	2	B	0	L1
TTP	15	288	6	E	0	L1
TTP	16	0	5	B	0	L1
TTP	16	192	1	B	0	L1
TTP	16	288	2	B	0	L1
TTP	17	96	5	B	0	L1
TTP	17	192	6	B	0	L1
TTP	18	0	2	E	0	L1
TTP	18	96	1	B	0	L1
TTP	18	288	6	E	0	L1
TTP	19	0	6	B	0	L1
TTP	19	192	1	B	0	L1
TTP	19	288	0	B	0	L1
TAP	20	96	6
TAP	20	192	5
TAP	20	288	3
TAP	20	288	4
TAP	21	0	2
TAP	21	96	1
TAP	21	192	0
TAP	21	192	7
TAP	21	288	6
TAP	22	0	5
TAP	22	96	3
TAP	22	96	4
TAP	22	192	2
TAP	22	288	1
TAP	23	0	0
TAP	23	0	7
TAP	23	96	6
TAP	23	144	6
TAP	23	192	6
TAP	23	288	6
TAP	23	288	7
TAP	24	0	1
TAP	24	48	1
TAP	24	96	1
TAP	24	192	0
TAP	24	192	1
TAP	24	288	0
TAP	24	288	7
TAP	24	336	0
TAP	24	336	7
TAP	25	0	0
TAP	25	0	7
TAP	25	96	1
TAP	25	96	6
TTP	25	192	0	C	1	L1
TTP	25	192	3	B	0	L1
TTP	25	192	4	B	0	L1
XTP	26	96	6
XTP	26	192	7
TAP	26	288	0
TAP	26	288	6
TAP	27	0	1
TAP	27	96	0
TAP	27	192	1
TAP	27	192	7
TAP	27	288	2
TAP	28	0	3
TAP	28	96	4
STR	28	192	5
SI_	28	192	5	96	96	2
TAP	29	96	1
TAP	29	192	0
TAP	29	288	1
TAP	29	288	7
TAP	30	0	6
TAP	30	96	7
TAP	30	192	0
TAP	30	192	6
TAP	30	288	5
TAP	31	0	4
TAP	31	96	3
STR	31	192	2
SI_	31	192	2	96	96	5
TAP	32	96	6
TAP	32	192	6
TAP	32	288	6
TAP	32	288	7
TAP	33	0	5
TAP	33	96	5
TAP	33	192	4
TAP	33	192	5
TAP	33	288	2
TAP	34	0	2
TAP	34	96	2
TAP	34	96	3
TAP	34	192	1
TAP	34	288	1
TAP	35	0	0
TAP	35	0	7
TAP	35	96	6
TAP	35	144	6
TAP	35	192	6
TAP	35	288	6
TAP	35	288	7
TAP	36	0	1
TAP	36	48	1
TAP	36	96	1
TAP	36	192	0
TAP	36	192	1
TAP	36	288	7
TAP	36	336	7
TAP	37	0	7
TAP	37	96	0
TAP	37	96	7
XTP	37	192	1
XTP	37	192	6
XTP	37	288	2
XTP	37	288	5
XTP	38	0	3
XTP	38	0	4
TAP	38	96	5
TAP	38	192	5
TAP	38	288	6
STR	39	0	6
SCL	39	0	6	96	96	3
TAP	39	288	2
TAP	40	0	2
TAP	40	96	1
STR	40	192	1
SCR	40	192	1	96	96	4
TAP	41	96	5
TAP	41	192	5
TAP	41	288	4
TAP	41	288	5
TAP	42	0	2
TAP	42	96	2
TAP	42	192	2
TAP	42	192	3
TAP	42	288	1
TAP	43	0	0
TAP	43	96	7
XTP	43	192	1
XTP	43	192	6
XTP	43	288	2
XTP	43	288	5
XTP	44	0	3
XTP	44	0	4
TAP	44	96	5
TAP	44	192	6
TAP	44	288	7
STR	45	0	7
SI_	45	0	7	96	96	3
TAP	45	288	2
TAP	46	0	1
TAP	46	96	0
STR	46	192	0
SI_	46	192	0	96	96	4
TAP	47	96	5
TAP	47	192	6
TAP	47	288	7
TAP	48	0	0
TAP	48	96	1
TAP	48	192	2
TAP	48	288	3
TAP	48	288	5
TAP	48	336	3
TAP	48	336	5
TAP	49	0	3
TAP	49	0	5
TAP	49	96	2
TAP	49	96	4
TAP	49	144	2
TAP	49	144	4
TAP	49	192	2
TAP	49	192	4
TAP	49	288	1
TAP	49	288	5
TAP	50	0	2
TAP	50	0	6
BST	50	96	1
SXL	50	96	1	96	672	4
BST	50	96	5
SXL	50	96	5	96	672	0
TAP	53	96	2
TAP	53	192	3
TAP	53	288	1
TAP	53	288	4
TAP	54	0	0
TAP	54	96	7
TAP	54	192	1
TAP	54	192	6
TAP	54	288	5
TAP	55	0	4
TAP	55	96	3
TAP	55	96	6
TAP	55	192	7
TAP	55	288	0
TAP	56	0	1
TAP	56	0	6
TAP	56	96	2
TAP	56	192	3
TAP	56	288	4
TAP	57	0	5
TAP	57	96	6
TAP	57	192	7
XTP	57	288	0
XTP	57	288	7
XTP	58	0	0
XTP	58	0	7
XTP	58	96	1
XTP	58	96	6
XTP	58	192	2
XTP	58	192	5
XTP	58	288	2
XTP	58	288	5
XTP	59	0	3
XTP	59	0	4
TAP	59	96	5
TAP	59	192	4
TAP	59	288	3
TAP	59	288	6
TAP	60	0	7
TAP	60	96	0
TAP	60	192	1
TAP	60	192	6
TAP	60	288	2
TAP	61	0	3
TAP	61	96	1
TAP	61	96	4
TAP	61	192	0
TAP	61	288	7
TAP	62	0	1
TAP	62	0	6
TAP	62	96	5
TAP	62	144	5
TAP	62	192	5
TAP	62	288	4
TAP	62	288	5
TAP	63	0	2
TAP	63	48	2
TAP	63	96	2
TAP	63	192	2
TAP	63	192	3
TAP	63	288	1
TAP	63	336	1
TAP	64	0	1
TAP	64	96	0
TAP	64	96	7
BRK	64	192	1
BRK	64	192	6
HLD	65	96	2	192
TAP	65	288	3
TAP	66	0	2
TAP	66	0	3
HLD	66	288	5	192
TAP	67	96	4
TAP	67	192	4
TAP	67	192	5
HLD	68	96	2	192
TAP	68	288	3
TAP	69	0	2
TAP	69	0	3
TAP	69	192	3
TAP	69	192	4
TAP	69	288	5
TAP	70	0	5
TAP	70	96	4
TAP	70	96	6
XTP	70	192	7
XTP	70	288	0
XTP	70	288	7
XTP	71	0	1
XTP	71	0	6
HLD	71	96	2	96
TAP	71	192	3
TAP	71	288	2
TAP	71	288	3
HLD	72	0	5	96
TAP	72	96	4
TAP	72	192	4
TAP	72	192	5
HLD	72	288	6	96
TAP	73	0	7
TAP	73	96	6
TAP	73	96	7
HLD	73	192	1	96
TAP	73	288	0
TAP	74	0	0
TAP	74	0	1
TAP	74	96	2
TAP	74	144	2
TAP	74	192	2
TAP	74	288	3
TAP	74	288	4
TAP	75	0	5
TAP	75	48	5
TAP	75	96	5
TAP	75	192	6
TAP	75	192	7
BST	75	288	0
SSL	75	288	0	96	288	4
STR	77	96	6
SCL	77	96	6	96	288	2
STR	78	288	1
SCR	78	288	1	96	288	5
STR	80	96	6
SCL	80	96	6	96	288	2
TAP	81	288	1
TAP	82	0	1
TAP	82	96	0
TAP	82	192	0
TAP	82	192	7
TAP	83	96	6
TAP	83	192	6
TAP	83	192	7
TAP	83	288	0
TAP	83	288	5
TAP	84	0	4
TAP	84	96	4
TAP	84	96	5
TAP	84	192	3
TAP	84	192	6
TAP	84	288	2
TAP	85	0	2
TAP	85	0	3
TAP	85	96	1
TAP	85	96	4
TAP	85	192	0
TAP	85	288	0
TAP	85	288	7
TAP	86	0	0
TAP	86	0	7
TTP	86	96	6	E	0	L1
TTP	86	192	5	B	0	L1
TTP	86	288	4	B	0	L1
TTP	87	0	3	B	0	L1
TTP	87	96	2	B	0	L1
TTP	87	192	2	E	0	L1
TTP	87	288	0	C	1	L1
TAP	88	192	0
TAP	88	192	7
TAP	88	288	1
TAP	88	288	6
TAP	89	0	2
TAP	89	0	5
BST	89	96	3
SCL	89	96	3	96	192	0
BST	89	96	4
SCR	89	96	4	96	192	7
TAP	90	288	6
TAP	90	336	6
TAP	91	0	6
TAP	91	96	6
TAP	91	96	7
TAP	91	192	0
TAP	91	192	1
TAP	91	288	2
TAP	91	288	3
TAP	92	0	1
TAP	92	0	4
TAP	92	96	5
TAP	92	144	5
TAP	92	192	5
TAP	92	288	4
TAP	92	288	5
TAP	93	0	6
TAP	93	96	0
TAP	93	96	7
TAP	93	192	1
TAP	93	192	6
TAP	93	288	2
TAP	93	336	2
TAP	94	0	2
TAP	94	96	2
TAP	94	96	3
TAP	94	192	0
TAP	94	192	1
TAP	94	288	6
TAP	94	288	7
TAP	95	0	0
TAP	95	0	5
TAP	95	96	4
TAP	95	192	3
TAP	95	192	4
TAP	95	288	3
TAP	95	288	4
XTP	96	0	2
XTP	96	0	5
XTP	96	96	1
XTP	96	96	6
XTP	96	192	0
XTP	96	192	7
TAP	96	288	6
TAP	96	336	6
TAP	97	0	6
TAP	97	96	5
TAP	97	96	7
TAP	97	192	1
TAP	97	240	1
TAP	97	288	1
TAP	98	0	0
TAP	98	0	2
TAP	98	96	5
TAP	98	144	5
TAP	98	192	5
TAP	98	288	4
TAP	98	288	6
XTP	99	0	3
XTP	99	0	5
XTP	99	96	2
XTP	99	96	4
XTP	99	192	1
XTP	99	192	3
TAP	99	288	0
TAP	99	336	0
TAP	100	0	1
TAP	100	48	1
TAP	100	96	0
TAP	100	96	1
TAP	100	192	7
TAP	100	240	7
TAP	100	288	6
TAP	100	336	6
TAP	101	0	6
TAP	101	0	7
TAP	101	96	1
TAP	101	144	2
TAP	101	192	3
TAP	101	240	4
TAP	101	288	5
TAP	101	336	6
TAP	102	0	0
TAP	102	0	7
TAP	102	96	1
TAP	102	96	6
TAP	102	192	2
TAP	102	192	5
BRK	102	288	3
BRK	102	288	4

T_REC_TAP	335
T_REC_BRK	4
T_REC_XTP	43
T_REC_HLD	19
T_REC_XHO	0
T_REC_STR	11
T_REC_BST	5
T_REC_XST	0
T_REC_TTP	25
T_REC_THO	0
T_REC_SLD	16
T_REC_ALL	458
T_NUM_TAP	414
T_NUM_BRK	9
T_NUM_HLD	19
T_NUM_SLD	16
T_NUM_ALL	458
T_JUDGE_TAP	423
T_JUDGE_HLD	80
T_JUDGE_SLD	16
T_JUDGE_ALL	519
TTM_EACHPAIRS	117
TTM_SCR_TAP	207000
TTM_SCR_BRK	23400
TTM_SCR_HLD	19000
TTM_SCR_SLD	24000
TTM_SCR_ALL	273400
TTM_SCR_S	264350
TTM_SCR_SS	272500
TTM_RAT_ACV	10033

