VERSION	0.00.00	1.03.00
FES_MODE	0
BPM_DEF	186.000	186.000	186.000	186.000
MET_DEF	4	4
RESOLUTION	384
CLK_DEF	288
COMPATIBLE_CODE	MA2

BPM	0	0	186.000
MET	0	0	4	3

XHO	2	96	0	576
HLD	5	96	7	576
TAP	8	96	0
TAP	9	288	0
TAP	11	96	7
TAP	12	288	7
XHO	14	96	0	288
HLD	15	288	1	288
HLD	17	96	2	288
HLD	18	288	3	288
HLD	20	96	4	288
HLD	21	288	5	288
HLD	23	96	6	288
HLD	24	288	0	288
HLD	24	288	7	288
TAP	26	96	7
TAP	27	0	7
TAP	27	288	6
TAP	28	192	6
TAP	29	96	5
TAP	30	0	5
TAP	30	288	3
TAP	30	288	4
TAP	31	192	3
TAP	31	192	4
TAP	32	96	3
TAP	33	0	3
TAP	33	288	2
TAP	34	192	2
TAP	35	96	1
TAP	36	0	1
TAP	36	288	0
XTP	37	192	0
XTP	37	192	7
TAP	38	96	0
TAP	39	0	1
TAP	39	288	2
TAP	40	192	3
TAP	40	192	4
TAP	41	96	4
TAP	42	0	5
TAP	42	288	6
XTP	43	192	0
XTP	43	192	7
TAP	44	96	7
TAP	45	0	6
TAP	45	0	7
TAP	45	288	5
TAP	46	192	4
TAP	46	192	5
TAP	47	96	3
TAP	48	0	2
TAP	48	0	3
TAP	48	288	1
TAP	49	192	0
TAP	49	192	1
BRK	50	96	7
TAP	51	288	0
TAP	51	288	7
XTP	52	192	0
XTP	52	192	7
TAP	53	96	0
TAP	53	192	0
TAP	54	0	1
TAP	54	96	1
TAP	54	288	2
TAP	55	0	2
TAP	55	192	3
TAP	55	288	3
TAP	56	96	4
TAP	56	192	4
TAP	57	0	5
TAP	57	96	5
TAP	57	288	6
TAP	58	0	6
XTP	58	192	0
XTP	58	192	7
TAP	59	96	7
TAP	59	192	7
TAP	60	0	6
TAP	60	96	6
TAP	60	288	5
TAP	61	0	5
TAP	61	192	4
TAP	61	288	4
TAP	62	96	3
TAP	62	192	3
TAP	63	0	2
TAP	63	96	2
TAP	63	288	1
TAP	64	0	1
BRK	64	192	0
BRK	64	192	7
STR	65	96	0
SI_	65	96	0	96	480	3
STR	68	96	7
SI_	68	96	7	96	480	4
TAP	71	96	0
TAP	71	192	0
TAP	72	0	1
TAP	72	96	1
TAP	72	288	2
TAP	73	0	2
TAP	73	192	3
TAP	73	192	4
TAP	73	288	3
TAP	73	288	4
TAP	74	96	4
TAP	74	192	4
TAP	75	0	5
TAP	75	96	5
TAP	75	288	6
TAP	76	0	6
TAP	76	192	0
TAP	76	192	7
TAP	76	288	0
TAP	76	288	7
BRK	77	96	1
BRK	77	96	6
TTP	78	288	0	B	0	L1
TTP	78	288	7	B	0	L1
TTP	79	192	1	B	0	L1
TTP	79	192	6	B	0	L1
TTP	80	96	2	B	0	L1
TTP	80	96	5	B	0	L1
TTP	81	0	3	B	0	L1
TTP	81	0	4	B	0	L1
THO	81	288	0	288	C	0	L1
TAP	83	96	7
TAP	83	192	7
TAP	83	288	7
TAP	84	0	6
TAP	84	0	7
TAP	84	288	5
TAP	85	0	5
TAP	85	96	5
TAP	85	192	4
TAP	85	192	5
TAP	86	96	3
TAP	86	192	3
TAP	86	288	3
TAP	87	0	2
TAP	87	0	3
TAP	87	288	1
TAP	88	0	1
TAP	88	96	1
TAP	88	192	0
TAP	88	192	1
TAP	89	96	7
TAP	89	192	7
TAP	89	288	7
TAP	90	0	0
TAP	90	0	7
TAP	90	288	0
TAP	91	0	0
TAP	91	96	0
TAP	91	192	1
TAP	91	288	1
TAP	92	0	1
TAP	92	96	2
TAP	92	192	2
TAP	92	288	2
TAP	93	0	3
TAP	93	0	4
TAP	93	288	4
TAP	94	0	4
TAP	94	96	4
TAP	94	192	5
TAP	94	288	5
TAP	95	0	5
TAP	95	96	6
TAP	95	192	6
TAP	95	288	6
XTP	96	0	0
XTP	96	0	7
TAP	96	288	7
TAP	97	0	7
TAP	97	96	7
TAP	97	192	6
TAP	97	288	6
TAP	98	0	6
TAP	98	96	5
TAP	98	192	5
TAP	98	288	5
TAP	99	0	3
TAP	99	0	4
TAP	99	96	3
TAP	99	96	4
TAP	99	192	3
TAP	99	192	4
TAP	99	288	2
TAP	100	0	2
TAP	100	96	2
TAP	100	192	1
TAP	100	288	1
TAP	101	0	1
TAP	101	96	0
TAP	101	96	7
TAP	101	192	0
TAP	101	192	7
TAP	101	288	0
TAP	101	288	7
TAP	102	0	1
TAP	102	0	6
TAP	102	96	1
TAP	102	96	6
TAP	102	192	1
TAP	102	192	6
BRK	102	288	2
BRK	102	288	5

T_REC_TAP	169
T_REC_BRK	7
T_REC_XTP	10
T_REC_HLD	9
T_REC_XHO	2
T_REC_STR	2
T_REC_BST	0
T_REC_XST	0
T_REC_TTP	8
T_REC_THO	1
T_REC_SLD	2
T_REC_ALL	210
T_NUM_TAP	189
T_NUM_BRK	7
T_NUM_HLD	12
T_NUM_SLD	2
T_NUM_ALL	210
T_JUDGE_TAP	196
T_JUDGE_HLD	84
T_JUDGE_SLD	2
T_JUDGE_ALL	282
TTM_EACHPAIRS	36
TTM_SCR_TAP	94500
TTM_SCR_BRK	18200
TTM_SCR_HLD	12000
TTM_SCR_SLD	3000
TTM_SCR_ALL	127700
TTM_SCR_S	123200
TTM_SCR_SS	127000
TTM_RAT_ACV	10055

