VERSION	0.00.00	1.03.00
FES_MODE	0
BPM_DEF	155.000	155.000	155.000	155.000
MET_DEF	4	4
RESOLUTION	384
CLK_DEF	384
COMPATIBLE_CODE	MA2

BPM	0	0	155.000
MET	0	0	4	4

TAP	2	0	5
TAP	2	48	4
TAP	2	96	3
HLD	2	144	2	240
TAP	3	0	5
TAP	3	48	4
TAP	3	96	3
HLD	3	144	2	240
TAP	4	0	5
TAP	4	48	4
TAP	4	96	3
TAP	4	144	2
TAP	4	192	5
TAP	4	240	4
TAP	4	288	3
TAP	4	336	2
TAP	5	0	5
TAP	5	48	4
TAP	5	96	3
TAP	5	144	2
HLD	5	192	5	192
STR	6	0	2
SCR	6	0	2	96	192	5
STR	6	288	7
SUL	6	288	7	96	240	2
THO	7	240	0	144	C	1	M1
TTP	8	0	4	B	0	M1
TTP	8	0	5	B	0	M1
TTP	8	0	6	E	0	M1
TTP	8	192	0	C	1	M1
TTP	8	192	2	B	0	M1
TTP	8	192	2	E	0	M1
TTP	8	192	3	B	0	M1
TAP	9	0	0
TAP	9	0	7
TAP	9	48	1
TAP	9	72	3
TAP	9	96	2
TAP	9	120	6
TAP	9	144	4
TAP	9	168	5
TAP	9	192	3
TAP	9	216	4
TAP	9	240	3
TAP	9	264	4
TAP	9	288	3
TAP	9	312	4
XTP	9	336	3
TAP	10	0	2
TAP	10	24	5
TAP	10	48	2
TAP	10	72	5
TAP	10	96	2
TAP	10	120	5
TAP	10	144	2
TAP	10	168	5
TAP	10	192	2
TAP	10	216	5
TAP	10	240	2
TAP	10	264	5
TAP	10	288	2
TAP	10	312	5
TAP	10	336	2
TAP	10	360	5
TAP	11	0	4
TAP	11	24	6
TAP	11	48	4
TAP	11	72	6
TAP	11	96	4
TAP	11	120	6
TAP	11	144	4
TAP	11	168	6
TAP	11	192	0
TAP	11	216	7
TAP	11	240	0
TAP	11	264	7
TAP	11	288	0
TAP	11	312	7
XTP	11	336	1
XTP	11	336	6
TAP	12	48	3
TAP	12	48	4
TAP	12	96	2
TAP	12	120	3
TAP	12	144	2
TAP	12	168	3
TAP	12	192	2
TAP	12	216	3
TAP	12	240	2
TAP	12	264	3
TAP	12	288	2
TAP	12	312	3
TAP	12	336	2
TAP	12	360	3
TAP	13	0	0
TAP	13	24	7
TAP	13	48	0
TAP	13	72	7
TAP	13	96	0
TAP	13	120	7
TAP	13	144	0
TAP	13	168	7
TAP	13	192	4
TAP	13	216	5
TAP	13	240	4
TAP	13	264	5
TAP	13	288	4
TAP	13	312	5
TAP	13	336	4
TAP	13	360	5
XTP	14	0	3
TAP	14	24	4
TAP	14	48	3
TAP	14	72	4
TAP	14	96	3
TAP	14	120	4
TAP	14	144	3
TAP	14	168	4
TAP	14	192	1
TAP	14	216	3
TAP	14	240	1
TAP	14	264	3
TAP	14	288	1
TAP	14	312	3
TAP	14	336	1
TAP	14	360	3
TAP	15	0	0
TAP	15	24	7
TAP	15	48	0
TAP	15	72	7
TAP	15	96	0
TAP	15	120	7
TAP	15	144	0
TAP	15	168	7
TAP	15	192	1
TAP	15	216	6
TAP	15	240	1
TAP	15	264	6
TAP	15	288	3
TAP	15	312	4
TAP	15	336	3
BRK	16	0	1
BRK	16	0	6
TAP	16	48	5
TAP	16	72	4
TAP	16	96	5
BRK	16	144	1
BRK	16	144	6
TAP	16	192	2
TAP	16	216	3
TAP	16	240	2
BRK	16	288	1
BRK	16	288	6
TAP	16	336	5
TAP	16	360	4
TAP	17	0	5
BRK	17	48	1
BRK	17	48	6
TAP	17	96	2
TAP	17	120	3
TAP	17	144	2
STR	17	192	1
SI_	17	192	1	96	48	4
STR	17	192	5
SI_	17	192	5	96	48	0
XTP	17	288	1
XTP	17	288	5
XTP	18	0	3
XTP	18	0	7
XTP	18	72	4
XTP	18	72	5
XTP	18	144	0
XTP	18	144	4
XTP	18	216	2
XTP	18	216	3
XTP	18	288	3
XTP	18	288	4
XTP	18	336	3
XTP	18	336	4
TTP	19	0	0	C	1	M1
TTP	19	0	1	B	0	M1
TTP	19	0	2	B	0	M1
TTP	19	0	5	B	0	M1
TTP	19	0	6	B	0	M1
HLD	19	192	6	72
HLD	19	264	5	72
TAP	19	336	4
STR	20	0	4
SI_	20	0	4	96	48	0
TAP	20	96	1
TAP	20	144	1
HLD	20	192	7	72
HLD	20	264	6	72
TAP	20	336	5
STR	21	0	5
SCR	21	0	5	96	96	0
STR	21	96	0
SCR	21	96	0	96	96	3
STR	21	192	3
SCR	21	192	3	96	96	6
TAP	21	288	6
TAP	22	0	0
TAP	22	48	0
TAP	22	96	7
TAP	22	144	6
STR	22	192	5
SUR	22	192	5	96	96	2
STR	22	288	2
SUL	22	288	2	96	96	5
TAP	23	0	4
TAP	23	96	3
HLD	23	192	3	72
HLD	23	264	2	72
TAP	23	336	1
STR	24	0	1
SCR	24	0	1	96	48	3
STR	24	0	4
SI_	24	0	4	96	48	0
HLD	24	192	7	72
HLD	24	264	6	72
TAP	24	336	5
TAP	25	0	0
STR	25	0	5
SCL	25	0	5	96	48	3
STR	25	96	1
SCL	25	96	1	96	48	7
TAP	25	96	5
TAP	25	192	1
HLD	25	192	6	96
STR	25	288	4
SI_	25	288	4	96	48	0
TAP	26	0	4
XTP	26	0	5
XTP	26	72	7
XTP	26	144	3
XTP	26	144	5
TTP	26	192	0	C	1	M1
TTP	26	192	2	B	0	M1
TTP	26	192	6	B	0	M1
XTP	27	0	0
XTP	27	0	7
TAP	27	72	2
TAP	27	72	4
TAP	27	144	3
TAP	27	144	5
XTP	27	192	2
XTP	27	192	6
TAP	27	264	3
TAP	27	264	5
TAP	27	336	2
TAP	27	336	4
TAP	28	0	1
TAP	28	48	1
TAP	28	96	3
TAP	28	144	2
TAP	28	192	1
TAP	28	240	1
TAP	28	288	0
TAP	28	288	1
TAP	28	336	2
TAP	28	336	7
HLD	29	0	3	72
HLD	29	0	6	72
TAP	29	96	3
TAP	29	96	6
TAP	29	144	5
HLD	29	192	1	72
HLD	29	192	4	72
TAP	29	288	1
TAP	29	288	4
TAP	29	336	2
HLD	30	0	3	72
HLD	30	0	4	72
TAP	30	96	3
TAP	30	96	4
TAP	30	144	4
TAP	30	144	5
HLD	30	192	3	72
HLD	30	192	6	72
TAP	30	288	3
TAP	30	288	6
TAP	30	336	2
TAP	30	336	7
XTP	31	0	0
XTP	31	0	1
TAP	31	72	2
TAP	31	72	4
TAP	31	144	3
TAP	31	144	5
XTP	31	192	6
XTP	31	192	7
TAP	31	264	3
TAP	31	264	5
TAP	31	336	2
TAP	31	336	4
TAP	32	0	1
TAP	32	48	1
TAP	32	96	3
TAP	32	144	2
TAP	32	192	1
TAP	32	240	0
TAP	32	240	1
TAP	32	288	2
TAP	32	288	7
TAP	32	336	6
HLD	33	0	3	72
HLD	33	0	5	72
TAP	33	96	3
TAP	33	96	5
TAP	33	144	7
HLD	33	192	2	72
HLD	33	192	4	72
TAP	33	288	2
TAP	33	288	4
TAP	33	336	0
XST	34	0	1
SI_	34	0	1	96	48	4
XTP	34	96	1
XST	34	96	5
SI_	34	96	5	96	48	0
XST	34	192	2
SI_	34	192	2	96	48	5
XTP	34	192	5
XTP	34	288	2
STR	34	288	7
SCL	34	288	7	96	240	1
TTP	35	0	0	C	1	M1
BRK	35	0	7
STR	35	288	0
SCR	35	288	0	96	240	6
TTP	36	0	0	C	1	M1
XTP	36	288	7
BRK	36	336	0
BRK	36	336	7
TAP	37	48	2
TAP	37	48	6
TAP	37	96	5
TAP	37	120	3
TAP	37	144	5
TAP	37	168	3
TAP	37	192	4
TAP	37	216	2
TAP	37	240	4
TAP	37	264	2
TAP	37	288	3
TAP	37	312	1
TAP	37	336	3
TAP	37	360	1
TAP	38	0	4
TAP	38	24	0
TAP	38	48	4
TAP	38	72	0
TAP	38	96	5
TAP	38	120	1
TAP	38	144	5
TAP	38	168	1
TAP	38	192	6
TAP	38	216	2
TAP	38	240	6
TAP	38	264	2
TAP	38	288	6
TAP	38	312	2
TAP	38	336	6
TAP	38	360	2
TAP	39	0	4
TAP	39	24	2
TAP	39	48	4
TAP	39	72	2
TAP	39	96	4
TAP	39	120	2
TAP	39	144	4
TAP	39	168	2
TAP	39	192	5
TAP	39	216	1
TAP	39	240	5
TAP	39	264	1
TAP	39	288	6
TAP	39	312	2
TAP	39	336	6
TAP	39	360	2
TAP	40	0	7
TAP	40	24	3
TAP	40	48	7
TAP	40	72	3
TAP	40	96	7
TAP	40	120	3
TAP	40	144	7
TAP	40	168	3
TAP	40	192	5
TAP	40	216	1
TAP	40	240	5
TAP	40	264	1
XTP	40	288	2
XTP	40	288	6
XTP	41	0	7
TAP	41	24	3
TAP	41	48	7
TAP	41	72	3
HLD	41	96	5	48
TAP	41	144	0
TAP	41	168	4
TAP	41	192	0
TAP	41	216	4
HLD	41	240	2	48
TAP	41	288	7
TAP	41	312	3
TAP	41	336	7
TAP	41	360	3
TAP	42	0	5
XTP	42	48	0
XTP	42	48	6
XTP	42	96	0
XTP	42	96	6
TAP	42	144	3
TAP	42	168	4
TAP	42	192	2
TAP	42	216	5
TAP	42	240	2
TAP	42	264	5
TAP	42	288	1
TAP	42	312	6
TAP	42	336	1
TAP	42	360	6
BST	43	0	0
SI_	43	0	0	96	48	4
BST	43	0	7
SI_	43	0	7	96	48	3
TAP	43	192	2
HLD	43	192	5	72
TAP	43	264	4
TAP	43	336	3
TAP	43	336	6
STR	44	0	3
SI_	44	0	3	96	48	7
STR	44	0	6
SI_	44	0	6	96	48	4
HLD	44	192	0	72
HLD	44	264	1	72
TAP	44	336	2
STR	45	0	2
SUR	45	0	2	96	96	7
STR	45	96	7
SCR	45	96	7	96	96	2
STR	45	192	2
SCR	45	192	2	96	96	5
TAP	45	288	5
TAP	46	0	6
TAP	46	48	6
TAP	46	96	7
TAP	46	144	0
STR	46	192	1
SI_	46	192	1	96	48	4
STR	46	192	3
SI_	46	192	3	96	48	7
XTP	47	0	3
XTP	47	0	6
TAP	47	96	4
TAP	47	96	5
TAP	47	144	4
HLD	47	192	6	72
HLD	47	264	4	72
TAP	47	336	3
TAP	48	0	2
STR	48	0	3
SI_	48	0	3	96	48	7
TAP	48	96	0
TAP	48	144	0
HLD	48	192	2	72
HLD	48	264	3	72
TAP	48	336	4
STR	49	0	4
SI_	49	0	4	96	48	0
TAP	49	0	5
STR	49	96	6
SI_	49	96	6	96	48	4
STR	49	192	1
SI_	49	192	1	96	48	3
HLD	49	288	7	96
XTP	50	0	4
XTP	50	72	2
XTP	50	72	5
XTP	50	144	0
XTP	50	144	3
XST	50	192	0
SI_	50	192	0	96	48	4
XTP	50	192	3
HLD	51	0	5	72
TAP	51	72	4
TAP	51	144	3
TAP	51	144	6
HLD	51	192	2	72
TAP	51	264	3
TAP	51	336	1
TAP	51	336	4
TAP	52	0	0
TAP	52	48	7
TAP	52	96	6
TAP	52	144	5
TAP	52	192	4
TAP	52	240	3
TAP	52	288	2
TAP	52	336	1
TAP	52	336	4
TAP	53	0	1
STR	53	0	4
SCR	53	0	4	96	96	0
TTP	53	96	5	B	0	M1
TTP	53	96	6	B	0	M1
STR	53	192	3
SCL	53	192	3	96	96	7
TTP	53	288	1	B	0	M1
TTP	53	288	2	B	0	M1
STR	54	0	4
SCR	54	0	4	96	96	0
STR	54	96	0
SF_	54	96	0	96	96	4
HLD	55	0	6	72
TAP	55	72	7
TAP	55	144	0
TAP	55	144	5
HLD	55	192	1	72
TAP	55	264	0
TAP	55	336	2
TAP	55	336	7
TAP	56	0	3
TAP	56	48	4
TAP	56	96	5
TAP	56	144	6
TAP	56	192	7
TAP	56	240	0
TAP	56	288	1
TAP	56	336	2
HLD	57	0	5	72
TAP	57	72	4
TAP	57	96	6
TAP	57	144	3
TAP	57	144	7
HLD	57	192	2	72
TAP	57	264	3
TAP	57	288	1
TAP	57	336	0
TAP	57	336	4
TAP	58	0	5
STR	58	0	7
SI_	58	0	7	96	48	4
STR	58	96	0
SCR	58	96	0	96	96	7
TAP	58	96	7
XTP	58	192	0
TTP	58	192	0	C	1	M1
XTP	59	0	1
XTP	59	0	6
XTP	59	48	1
XTP	59	48	6
TAP	59	96	2
TAP	59	120	4
TAP	59	144	2
TAP	59	168	4
BRK	59	192	0
BRK	60	0	2
TAP	60	24	4
TAP	60	48	2
TAP	60	72	4
TAP	60	96	2
TAP	60	120	4
XTP	60	144	2
TAP	60	168	4
XTP	60	192	0
TAP	60	216	7
XTP	60	240	0
TAP	60	264	7
XTP	60	288	4
TAP	60	312	5
XTP	60	336	4
TAP	60	360	5
XTP	61	0	1
TAP	61	24	4
TAP	61	48	1
TAP	61	72	4
TAP	61	96	1
TAP	61	120	4
TAP	61	144	1
TAP	61	168	4
TAP	61	192	2
TAP	61	216	5
XTP	61	240	2
TAP	61	264	5
XTP	61	288	3
TAP	61	312	6
TAP	61	336	3
TAP	61	360	6
BRK	62	0	1
TAP	62	24	0
TAP	62	48	1
TAP	62	72	0
TAP	62	96	1
TAP	62	120	0
XTP	62	144	1
TAP	62	168	0
XTP	62	192	2
TAP	62	216	7
XTP	62	240	2
TAP	62	264	7
XST	62	288	4
SI_	62	288	4	96	48	0
TAP	62	312	5
XTP	62	336	4
TAP	62	360	5
XTP	63	0	4
XTP	63	96	2
XTP	63	96	7
TAP	63	168	5
TAP	63	192	3
TAP	63	216	5
TAP	63	240	3
STR	63	288	2
SCL	63	288	2	96	96	6
TAP	63	288	4
TAP	63	336	5
STR	64	0	6
SUR	64	0	6	96	96	2
TAP	64	96	4
XTP	64	192	5
XTP	64	240	6
STR	64	288	7
SUL	64	288	7	96	96	1
TAP	64	336	2
STR	65	0	1
SUR	65	0	1	96	96	7
TAP	65	96	0
TAP	65	192	1
TAP	65	240	1
STR	65	288	2
SI_	65	288	2	96	48	0
TAP	65	336	3
TAP	66	0	2
TAP	66	0	4
STR	66	96	6
SI_	66	96	6	96	48	3
TAP	66	144	7
TAP	66	192	0
TAP	66	192	6
STR	66	288	1
SCR	66	288	1	96	96	7
TAP	66	336	0
TAP	67	0	1
BRK	67	0	7
XTP	67	192	2
XTP	67	192	5
TAP	67	240	3
TAP	67	264	4
TAP	67	288	3
TAP	67	312	4
TAP	67	336	3
TAP	67	360	4
BRK	68	0	1
TAP	68	24	6
TAP	68	48	1
TAP	68	72	6
TAP	68	96	1
TAP	68	120	6
TAP	68	144	1
TAP	68	168	6
XTP	68	192	3
TAP	68	216	4
XTP	68	240	3
TAP	68	264	4
XTP	68	288	0
TAP	68	312	7
XTP	68	336	0
TAP	68	360	7
XTP	69	0	1
TAP	69	24	6
TAP	69	48	1
TAP	69	72	6
TAP	69	96	2
TAP	69	120	6
TAP	69	144	2
TAP	69	168	6
TAP	69	192	3
TAP	69	216	6
TAP	69	240	3
TAP	69	264	6
XTP	69	288	4
TAP	69	312	5
XTP	69	336	4
TAP	69	360	5
BRK	70	0	1
TAP	70	24	3
TAP	70	48	1
TAP	70	72	3
TAP	70	96	1
TAP	70	120	3
XTP	70	144	1
XTP	70	168	3
XTP	70	192	2
TAP	70	216	7
XTP	70	240	2
TAP	70	264	7
XTP	70	288	0
TAP	70	312	5
XTP	70	336	0
TAP	70	360	5
BRK	71	0	1
TAP	71	24	4
TAP	71	48	1
TAP	71	72	4
TAP	71	96	2
TAP	71	120	4
TAP	71	144	2
TAP	71	168	4
TAP	71	192	3
TAP	71	216	4
XTP	71	240	3
TAP	71	264	4
XTP	71	288	2
TAP	71	312	5
XTP	71	336	2
TAP	71	360	5
BRK	72	0	1
TAP	72	24	0
TAP	72	48	1
TAP	72	72	0
TAP	72	96	1
TAP	72	120	0
TAP	72	144	1
TAP	72	168	0
XTP	72	192	4
TAP	72	216	6
XTP	72	240	4
TAP	72	264	6
XTP	72	288	2
TAP	72	312	3
XTP	72	336	2
TAP	72	360	3
BRK	73	0	7
TAP	73	24	6
TAP	73	48	7
TAP	73	72	6
TAP	73	96	7
TAP	73	120	6
TAP	73	144	7
TAP	73	168	6
TAP	73	192	4
TAP	73	216	5
XTP	73	240	4
TAP	73	264	5
XTP	73	288	2
TAP	73	312	3
XTP	73	336	2
TAP	73	360	3
BRK	74	0	0
TAP	74	24	6
TAP	74	48	4
TAP	74	72	6
TAP	74	96	4
TAP	74	120	6
TAP	74	144	4
TAP	74	168	6
BRK	74	192	0
TAP	74	216	6
TAP	74	240	4
TAP	74	264	6
TAP	74	288	4
TAP	74	312	6
TAP	74	336	4
TAP	74	360	6
XTP	75	0	0
XTP	75	48	0
TAP	75	48	7
TAP	75	96	2
TAP	75	120	2
TAP	75	120	3
TAP	75	168	5
TAP	75	192	4
TAP	75	192	5
TAP	75	240	7
TAP	75	264	0
TAP	75	288	7
TAP	75	312	0
TAP	75	336	7
TAP	75	360	0
XHO	76	0	1	192
BRK	76	0	6
BRK	76	192	7
BRK	76	264	4
BRK	76	264	5
BRK	76	336	2
BRK	76	336	3
TAP	77	0	1
TAP	77	24	5
TAP	77	48	4
TAP	77	72	5
TAP	77	96	1
TAP	77	120	5
TAP	77	144	4
TAP	77	168	5
TAP	77	192	1
TAP	77	216	5
TAP	77	240	4
TAP	77	264	5
TAP	77	288	1
TAP	77	312	5
TAP	77	336	4
TAP	77	360	5
TAP	78	0	7
TAP	78	24	5
TAP	78	48	4
TAP	78	72	5
TAP	78	96	7
TAP	78	120	5
TAP	78	144	4
TAP	78	168	5
TAP	78	192	7
TAP	78	216	5
STR	78	240	4
SI_	78	240	4	96	48	0
TAP	78	264	5
TAP	78	288	7
TAP	78	312	5
BRK	78	336	4
TAP	79	48	1
TAP	79	48	7
TAP	79	96	2
TAP	79	120	6
TAP	79	144	2
TAP	79	168	6
TAP	79	192	3
TAP	79	216	5
TAP	79	240	3
TAP	79	264	5
TAP	79	288	2
TAP	79	312	4
TAP	79	336	2
TAP	79	360	4
TAP	80	0	1
TAP	80	24	5
TAP	80	48	1
TAP	80	72	5
TAP	80	96	2
TAP	80	120	4
TAP	80	144	2
TAP	80	168	4
TAP	80	192	3
TAP	80	216	6
TAP	80	240	3
TAP	80	264	6
TAP	80	288	0
TAP	80	312	4
TAP	80	336	0
TAP	80	360	4
TAP	81	0	1
TAP	81	24	7
TAP	81	48	1
TAP	81	72	7
TAP	81	96	1
TAP	81	120	7
TAP	81	144	1
TAP	81	168	7
TAP	81	192	4
TAP	81	216	5
TAP	81	240	4
TAP	81	264	5
TAP	81	288	2
TAP	81	312	3
TAP	81	336	2
TAP	81	360	3
TAP	82	0	0
TAP	82	24	6
TAP	82	48	0
TAP	82	72	6
TAP	82	96	0
TAP	82	120	6
TAP	82	144	0
TAP	82	168	6
TAP	82	192	1
TAP	82	216	3
TAP	82	240	1
TAP	82	264	3
TAP	82	288	2
TAP	82	312	3
TAP	82	336	2
TAP	82	360	3
BRK	83	0	0
TAP	83	24	6
TAP	83	48	4
TAP	83	72	6
TAP	83	96	4
TAP	83	120	6
BRK	83	144	1
TAP	83	168	5
TAP	83	192	3
TAP	83	216	5
TAP	83	240	3
TAP	83	264	5
BRK	83	288	7
TAP	83	312	6
TAP	83	336	4
TAP	83	360	6
TAP	84	0	4
TAP	84	24	6
BRK	84	48	0
TAP	84	72	5
TAP	84	96	3
TAP	84	120	6
TAP	84	144	2
TAP	84	168	7
STR	84	192	0
SI_	84	192	0	96	48	4
STR	84	192	1
SI_	84	192	1	96	48	5
BRK	84	288	0
BRK	84	288	1
XTP	85	0	3
XTP	85	0	6
TAP	85	48	5
TAP	85	72	4
TAP	85	72	5
TAP	85	120	2
TAP	85	144	2
TAP	85	144	3
TAP	85	192	5
TAP	85	216	4
TAP	85	216	6
TAP	85	264	2
TAP	85	288	1
TAP	85	288	3
TAP	85	336	0
TAP	85	336	7
TAP	85	352	1
TAP	85	352	6
TAP	85	368	2
TAP	85	368	5
TAP	86	0	3
STR	86	0	4
SI_	86	0	4	96	48	0
SI_	86	0	4	96	48	0
BST	86	96	4
SXL	86	96	4	96	3264	4
SXR	86	96	4	96	3264	4
TTP	86	108	0	C	1	M1

T_REC_TAP	633
T_REC_BRK	35
T_REC_XTP	100
T_REC_HLD	40
T_REC_XHO	1
T_REC_STR	45
T_REC_BST	3
T_REC_XST	5
T_REC_TTP	23
T_REC_THO	1
T_REC_SLD	55
T_REC_ALL	941
T_NUM_TAP	806
T_NUM_BRK	38
T_NUM_HLD	42
T_NUM_SLD	55
T_NUM_ALL	941
T_JUDGE_TAP	844
T_JUDGE_HLD	93
T_JUDGE_SLD	55
T_JUDGE_ALL	992
TTM_EACHPAIRS	107
TTM_SCR_TAP	403000
TTM_SCR_BRK	98800
TTM_SCR_HLD	42000
TTM_SCR_SLD	82500
TTM_SCR_ALL	626300
TTM_SCR_S	603850
TTM_SCR_SS	622500
TTM_RAT_ACV	10061

