VERSION	0.00.00	1.03.00
FES_MODE	0
BPM_DEF	155.000	155.000	155.000	155.000
MET_DEF	4	4
RESOLUTION	384
CLK_DEF	384
COMPATIBLE_CODE	MA2

BPM	0	0	155.000
MET	0	0	4	4

HLD	2	0	2	384
HLD	3	0	3	384
HLD	4	0	5	192
HLD	4	192	4	192
HLD	5	0	3	384
STR	6	0	2
SCR	6	0	2	96	192	5
STR	7	0	1
SCR	7	0	1	96	192	4
XHO	8	0	3	96
XHO	8	0	5	96
XHO	8	192	2	96
XHO	8	192	4	96
TAP	9	0	0
TAP	9	48	0
TAP	9	96	7
BRK	9	192	1
BRK	9	192	6
TAP	10	0	5
TAP	10	48	5
TAP	10	96	4
TAP	10	96	6
TAP	10	192	2
TAP	10	192	3
STR	10	288	1
SI_	10	288	1	96	48	3
TAP	10	288	4
STR	11	0	0
SI_	11	0	0	96	48	4
TAP	11	96	1
TAP	11	192	2
HLD	11	240	2	96
XTP	11	336	3
TAP	12	48	1
TAP	12	48	4
TAP	12	96	1
TAP	12	96	4
TAP	12	192	4
TAP	12	192	5
STR	12	288	3
SI_	12	288	3	96	48	1
TAP	12	288	6
STR	13	0	7
SI_	13	0	7	96	48	3
TAP	13	96	0
TAP	13	192	2
TAP	13	192	4
TAP	13	288	0
TAP	13	288	7
TAP	14	0	2
TAP	14	48	2
TAP	14	96	1
TAP	14	96	3
TAP	14	192	4
TAP	14	192	5
TAP	14	288	3
STR	14	288	6
SI_	14	288	6	96	48	4
STR	15	0	7
SI_	15	0	7	96	48	3
TAP	15	96	6
XTP	15	192	2
XTP	15	192	4
XHO	15	240	2	96
XHO	15	240	4	96
HLD	16	0	3	96
HLD	16	0	5	96
HLD	16	144	2	96
HLD	16	144	4	96
HLD	16	288	3	96
HLD	16	288	5	96
HLD	17	48	2	96
HLD	17	48	4	96
TTP	17	192	2	E	0	M1
TTP	17	288	6	E	0	M1
HLD	18	0	4	96
HLD	18	0	6	96
HLD	18	144	1	96
HLD	18	144	3	96
TAP	18	288	0
TAP	18	288	7
HLD	19	0	6	192
TAP	19	96	5
TAP	19	192	4
TAP	19	240	4
TAP	19	288	3
TAP	19	288	5
HLD	20	0	1	192
TAP	20	96	2
TAP	20	192	3
TAP	20	240	3
TAP	20	288	2
TAP	20	288	4
TAP	21	0	5
TAP	21	96	4
TAP	21	96	6
TAP	21	192	7
TAP	21	240	7
TAP	21	288	0
TAP	21	288	6
TAP	22	0	1
TAP	22	96	0
TAP	22	96	2
TAP	22	192	3
TAP	22	240	3
TAP	22	288	2
TAP	22	288	4
HLD	23	0	1	192
TAP	23	96	2
TAP	23	192	3
TAP	23	240	3
TAP	23	288	2
TAP	23	288	4
HLD	24	0	6	192
TAP	24	96	5
TAP	24	192	4
TAP	24	240	4
TAP	24	288	3
TAP	24	288	5
TAP	25	0	6
TAP	25	0	7
TAP	25	96	0
TAP	25	96	1
TAP	25	192	2
TAP	25	192	3
TAP	25	288	4
TAP	25	288	5
XTP	26	0	0
XTP	26	0	7
XTP	26	72	0
XTP	26	72	7
XTP	26	144	1
XTP	26	144	6
XTP	26	192	1
XTP	26	192	6
TAP	27	0	3
TAP	27	0	5
XTP	27	72	3
XTP	27	72	5
TAP	27	192	2
TAP	27	192	4
XTP	27	264	2
XTP	27	264	4
STR	28	0	1
SSR	28	0	1	96	144	5
TAP	28	0	5
XST	29	0	6
SCR	29	0	6	96	96	1
STR	29	192	2
SCR	29	192	2	96	96	5
STR	30	0	7
SXR	30	0	7	96	144	0
TAP	31	0	0
TAP	31	0	2
XTP	31	72	0
XTP	31	72	2
TAP	31	192	5
TAP	31	192	7
XTP	31	264	5
XTP	31	264	7
TAP	32	0	3
STR	32	0	6
SSL	32	0	6	96	144	2
XST	33	0	1
SCL	33	0	1	96	96	6
STR	33	192	5
SCL	33	192	5	96	96	2
XHO	34	0	1	96
HLD	34	96	0	96
HLD	34	192	7	96
STR	34	288	6
SCL	34	288	6	96	240	7
TTP	35	0	0	C	1	M1
XTP	36	0	4
XTP	36	0	5
XTP	36	96	2
XTP	36	96	3
TAP	36	192	0
TAP	36	192	1
HLD	36	240	0	48
HLD	36	240	1	48
XTP	36	336	2
XTP	36	336	7
TAP	37	48	4
TAP	37	48	6
TAP	37	96	4
TAP	37	96	6
TAP	37	192	3
TAP	37	240	3
TAP	37	288	2
TAP	37	288	4
TAP	38	0	1
TAP	38	48	1
TAP	38	96	0
TAP	38	96	1
TAP	38	192	6
TAP	38	192	7
TAP	38	288	3
TAP	38	288	5
TAP	39	0	2
TAP	39	48	2
TAP	39	96	1
TAP	39	96	3
TAP	39	192	7
TAP	39	240	7
TAP	39	288	0
TAP	39	288	6
TAP	40	0	4
TAP	40	0	5
TAP	40	96	2
TAP	40	96	3
XTP	40	192	2
XTP	40	192	4
XHO	40	240	2	96
XHO	40	240	4	96
HLD	41	0	3	96
HLD	41	0	5	96
HLD	41	144	2	96
HLD	41	144	4	96
HLD	41	288	3	96
HLD	41	288	5	96
HLD	42	48	2	96
HLD	42	48	4	96
TAP	42	192	1
TAP	42	192	5
BRK	42	288	0
BRK	42	288	7
STR	43	0	5
SCR	43	0	5	96	144	1
TAP	43	192	4
TAP	43	288	3
STR	44	0	2
SCL	44	0	2	96	144	6
TAP	44	192	3
TAP	44	288	4
STR	45	0	5
SCL	45	0	5	96	72	2
XST	45	192	1
SCL	45	192	1	96	72	6
XTP	46	0	5
STR	46	96	4
SI_	46	96	4	96	72	0
TAP	46	96	6
STR	47	0	6
SLL	47	0	6	96	120	2
TAP	47	192	7
TAP	47	288	0
STR	48	0	1
SLR	48	0	1	96	120	5
TAP	48	192	0
TAP	48	288	7
STR	49	0	6
SI_	49	0	6	96	72	1
STR	49	192	2
SI_	49	192	2	96	72	5
TAP	50	0	6
TAP	50	96	5
STR	50	96	7
SI_	50	96	7	96	72	3
TAP	51	0	2
TAP	51	0	4
BRK	51	72	2
BRK	51	72	4
TAP	51	192	3
TAP	51	192	5
BRK	51	264	3
BRK	51	264	5
TAP	52	0	2
TAP	52	0	4
TAP	52	96	3
TAP	52	96	5
HLD	52	192	2	96
HLD	52	192	6	96
STR	53	0	5
SI_	53	0	5	96	48	3
STR	53	192	1
SI_	53	192	1	96	72	5
STR	54	0	6
SXL	54	0	6	96	192	4
TAP	55	0	3
TAP	55	0	5
BRK	55	72	3
BRK	55	72	5
TAP	55	192	2
TAP	55	192	4
BRK	55	264	2
BRK	55	264	4
TAP	56	0	3
TAP	56	0	5
TAP	56	96	2
TAP	56	96	4
HLD	56	192	1	96
HLD	56	192	5	96
STR	57	0	2
SI_	57	0	2	96	48	4
STR	57	192	6
SI_	57	192	6	96	72	2
TAP	58	0	0
TAP	58	96	1
TAP	58	96	7
STR	58	192	2
SXR	58	192	2	96	168	3
STR	58	192	6
SXR	58	192	6	96	168	7
BRK	59	192	3
BRK	59	192	7
TAP	60	0	5
TAP	60	48	5
TAP	60	96	4
TAP	60	144	7
TAP	60	192	2
TAP	60	240	2
TAP	60	288	3
TAP	60	336	0
TAP	61	0	6
TAP	61	48	6
TAP	61	96	4
TAP	61	144	7
TAP	61	192	1
TAP	61	240	1
TAP	61	288	3
TAP	61	336	0
TAP	62	0	6
TAP	62	48	4
TAP	62	96	7
TAP	62	144	0
TAP	62	192	3
TAP	62	240	1
TAP	62	288	7
TAP	62	336	0
STR	63	0	6
SI_	63	0	6	96	48	3
STR	63	96	2
SI_	63	96	2	96	48	7
TAP	63	192	4
TAP	63	288	1
TAP	63	288	5
TAP	64	0	6
TAP	64	48	7
TAP	64	96	0
HLD	64	96	5	192
TTP	64	192	4	E	0	M1
TTP	64	288	3	E	0	M1
TAP	65	0	1
TAP	65	48	0
HLD	65	96	2	192
TAP	65	96	7
TTP	65	192	4	E	0	M1
TTP	65	288	5	E	0	M1
XTP	66	0	5
TAP	66	48	3
TAP	66	96	4
TAP	66	144	2
TAP	66	192	7
TAP	66	240	1
TAP	66	288	6
TAP	66	336	0
TAP	67	0	1
STR	67	0	5
SI_	67	0	5	96	48	3
STR	67	96	2
SI_	67	96	2	96	48	7
TAP	67	192	4
TAP	67	288	1
TAP	67	288	5
BRK	68	0	6
TAP	68	48	6
TAP	68	96	7
TAP	68	144	4
TAP	68	192	1
TAP	68	240	1
TAP	68	288	0
TAP	68	336	3
TAP	69	0	6
TAP	69	48	6
TAP	69	96	4
TAP	69	144	7
TAP	69	192	1
TAP	69	240	1
TAP	69	288	3
TAP	69	336	0
XTP	70	0	6
TAP	70	48	4
TAP	70	96	5
TAP	70	144	7
XTP	70	192	3
TAP	70	240	1
TAP	70	288	0
TAP	70	336	2
XST	71	0	6
SI_	71	0	6	96	48	2
STR	71	96	3
SI_	71	96	3	96	48	0
TAP	71	192	7
BRK	71	288	1
BRK	71	288	6
TAP	72	0	5
TAP	72	48	4
TAP	72	96	3
HLD	72	96	6	192
TTP	72	192	0	E	0	M1
TTP	72	288	1	E	0	M1
TAP	73	0	2
TAP	73	48	3
HLD	73	96	1	192
TAP	73	96	4
TTP	73	192	0	E	0	M1
TTP	73	288	7	E	0	M1
XTP	74	0	6
TAP	74	48	7
TAP	74	96	0
TAP	74	144	1
TAP	74	192	2
TAP	74	240	3
TAP	74	288	4
TAP	74	336	5
STR	75	0	3
SXR	75	0	3	96	192	0
STR	75	0	4
SXL	75	0	4	96	192	7
TTP	76	0	0	C	1	M1
XTP	76	192	0
XTP	76	192	7
XTP	76	264	0
XTP	76	264	7
XTP	76	336	1
XTP	76	336	6
BST	77	0	1
SXL	77	0	1	96	192	7
BST	77	0	6
SXR	77	0	6	96	192	0
TAP	78	0	2
TAP	78	0	5
TAP	78	96	0
TAP	78	96	7
TAP	78	192	2
TAP	78	192	5
TAP	78	240	2
HLD	78	240	5	96
XTP	78	336	4
TAP	79	48	3
TAP	79	48	6
TAP	79	96	3
TAP	79	96	6
TAP	79	192	2
TAP	79	192	3
TAP	79	288	1
STR	79	288	4
SI_	79	288	4	96	48	6
STR	80	0	0
SI_	80	0	0	96	48	4
TAP	80	96	7
TAP	80	192	3
TAP	80	192	5
TAP	80	288	0
TAP	80	288	7
TAP	81	0	2
TAP	81	48	2
TAP	81	96	1
TAP	81	96	3
TAP	81	192	4
TAP	81	192	5
TAP	81	288	3
STR	81	288	6
SI_	81	288	6	96	48	4
STR	82	0	7
SI_	82	0	7	96	48	3
TAP	82	96	6
XTP	82	192	2
XTP	82	192	4
XHO	82	240	2	96
XHO	82	240	4	96
HLD	83	0	3	96
HLD	83	0	5	96
HLD	83	144	2	96
HLD	83	144	4	96
HLD	83	288	3	96
HLD	83	288	5	96
HLD	84	48	2	96
HLD	84	48	4	96
TTP	84	192	1	B	0	M1
TTP	84	288	5	B	0	M1
HLD	85	0	4	96
HLD	85	0	6	96
HLD	85	144	1	96
HLD	85	144	3	96
HLD	85	288	0	96
HLD	85	288	7	96
THO	86	96	0	1824	C	1	M1
TTP	86	96	1	B	0	M1
TTP	86	96	2	B	0	M1
TTP	86	96	5	B	0	M1
TTP	86	96	6	B	0	M1

T_REC_TAP	254
T_REC_BRK	17
T_REC_XTP	41
T_REC_HLD	57
T_REC_XHO	11
T_REC_STR	41
T_REC_BST	2
T_REC_XST	4
T_REC_TTP	18
T_REC_THO	1
T_REC_SLD	47
T_REC_ALL	493
T_NUM_TAP	358
T_NUM_BRK	19
T_NUM_HLD	69
T_NUM_SLD	47
T_NUM_ALL	493
T_JUDGE_TAP	377
T_JUDGE_HLD	210
T_JUDGE_SLD	47
T_JUDGE_ALL	634
TTM_EACHPAIRS	127
TTM_SCR_TAP	179000
TTM_SCR_BRK	49400
TTM_SCR_HLD	69000
TTM_SCR_SLD	70500
TTM_SCR_ALL	367900
TTM_SCR_S	355050
TTM_SCR_SS	366000
TTM_RAT_ACV	10051

