VERSION	0.00.00	1.03.00
FES_MODE	0
BPM_DEF	155.000	155.000	155.000	155.000
MET_DEF	4	4
RESOLUTION	384
CLK_DEF	384
COMPATIBLE_CODE	MA2

BPM	0	0	155.000
MET	0	0	4	4

STR	2	0	0
SCR	2	0	0	96	384	5
STR	4	0	7
SCL	4	0	7	96	384	2
STR	6	0	1
SUR	6	0	1	96	144	5
STR	7	0	6
SUL	7	0	6	96	144	2
XTP	8	0	0
XTP	8	0	1
XTP	8	192	6
XTP	8	192	7
TAP	9	0	0
TAP	9	0	7
TAP	9	96	0
TAP	9	96	7
BRK	9	192	1
BRK	9	192	6
TAP	10	0	5
TAP	10	96	5
TAP	10	192	4
TAP	10	288	4
TAP	11	0	3
TAP	11	96	3
TAP	11	192	2
TAP	11	192	4
TAP	12	0	1
TAP	12	96	1
TAP	12	192	0
TAP	12	288	0
TAP	13	0	7
TAP	13	96	7
TAP	13	192	0
TAP	13	192	7
TAP	14	0	6
TAP	14	96	6
TAP	14	192	7
TAP	14	288	7
TAP	15	0	0
TAP	15	96	0
TAP	15	192	1
TAP	15	192	7
TAP	16	0	2
TAP	16	96	2
TAP	16	192	2
TAP	16	192	3
TAP	16	288	4
TAP	17	0	5
TAP	17	96	4
TAP	17	96	5
BRK	17	192	3
BRK	17	192	6
STR	18	0	7
SI_	18	0	7	96	144	3
TAP	19	0	2
TAP	19	96	2
TAP	19	192	3
TAP	19	288	3
TAP	20	0	4
TAP	20	96	4
TAP	20	192	5
TAP	20	288	5
TAP	21	0	6
TAP	21	96	6
TAP	21	192	6
TAP	21	192	7
TAP	22	0	1
TAP	22	96	1
TAP	22	192	0
TAP	22	192	1
TAP	23	0	6
TAP	23	96	6
TAP	23	192	7
TAP	23	288	7
TAP	24	0	0
TAP	24	96	0
TAP	24	192	1
TAP	24	288	1
TAP	25	0	2
TAP	25	96	2
TAP	25	192	2
TAP	25	192	3
TAP	26	0	4
TAP	26	96	4
TAP	26	192	3
TAP	26	192	5
TTP	27	0	4	E	0	L1
TTP	27	0	5	E	0	L1
TTP	27	192	6	E	0	L1
TTP	27	192	7	E	0	L1
TTP	28	0	1	E	0	L1
TTP	28	96	1	B	0	L1
TTP	28	192	2	B	0	L1
XST	29	0	4
SI_	29	0	4	96	144	7
STR	30	0	0
SI_	30	0	0	96	144	3
TTP	31	0	5	E	0	L1
TTP	31	0	6	E	0	L1
TTP	31	192	0	E	0	L1
TTP	31	192	7	E	0	L1
TTP	32	0	3	E	0	L1
TTP	32	96	4	E	0	L1
TTP	32	192	5	E	0	L1
XTP	33	0	6
XTP	33	0	7
XTP	33	192	0
XTP	33	192	1
HLD	34	0	7	192
TAP	34	192	0
TAP	34	288	0
TAP	34	288	7
BRK	35	0	1
TAP	35	96	1
TAP	35	192	2
TAP	35	288	3
TAP	36	0	4
TAP	36	0	5
TAP	36	96	4
TAP	36	96	5
TAP	36	192	3
TAP	36	192	6
TAP	37	0	6
TAP	37	96	6
TAP	37	192	5
TAP	37	288	4
TAP	38	0	2
TAP	38	0	3
TAP	38	96	2
TAP	38	96	3
TAP	38	192	1
TAP	38	192	4
TAP	39	0	1
TAP	39	96	1
TAP	39	192	2
TAP	39	288	3
TAP	40	0	4
TAP	40	0	5
TAP	40	96	4
TAP	40	96	5
TAP	40	192	3
TAP	40	192	6
TAP	41	0	3
TAP	41	96	2
TAP	41	192	2
TAP	41	192	3
TAP	41	288	4
TAP	42	0	5
TAP	42	96	4
TAP	42	96	5
BRK	42	192	3
BRK	42	192	6
TAP	43	0	6
TAP	43	96	6
TAP	43	192	6
TAP	43	192	7
TAP	43	288	6
TAP	43	288	7
TAP	44	0	1
TAP	44	96	1
TAP	44	192	0
TAP	44	192	1
TAP	44	288	0
TAP	44	288	1
TAP	45	0	2
TAP	45	96	2
TAP	45	192	3
TAP	45	288	3
TAP	46	0	4
TAP	46	96	4
TAP	46	192	3
TAP	46	192	5
TAP	47	0	2
TAP	47	96	2
TAP	47	192	2
TAP	47	192	3
TAP	47	288	2
TAP	47	288	3
TAP	48	0	5
TAP	48	96	5
TAP	48	192	4
TAP	48	192	5
TAP	48	288	4
TAP	48	288	5
TAP	49	0	6
TAP	49	96	6
TAP	49	192	7
TAP	49	288	7
TAP	50	0	0
TAP	50	96	0
TAP	50	96	7
BRK	50	192	1
BRK	50	192	6
HLD	51	0	2	72
HLD	51	0	3	72
HLD	51	192	4	72
HLD	51	192	5	72
TAP	52	0	2
TAP	52	0	3
TAP	52	96	2
TAP	52	96	3
TAP	52	192	1
TAP	52	192	4
STR	53	0	0
SI_	53	0	0	96	144	5
STR	53	0	1
SI_	53	0	1	96	144	4
STR	54	0	6
SI_	54	0	6	96	144	3
STR	54	0	7
SI_	54	0	7	96	144	2
XHO	55	0	0	72
XHO	55	0	1	72
HLD	55	192	6	72
HLD	55	192	7	72
TAP	56	0	0
TAP	56	0	1
TAP	56	96	0
TAP	56	96	1
TAP	56	192	2
TAP	56	192	7
STR	57	0	2
SI_	57	0	2	96	144	7
STR	57	0	3
SI_	57	0	3	96	144	6
TAP	58	0	0
TAP	58	0	5
TAP	58	96	0
TAP	58	96	5
STR	58	192	0
SCR	58	192	0	96	288	6
BRK	60	0	6
TAP	60	96	6
TAP	60	96	7
TAP	60	192	6
TAP	60	288	6
TAP	60	288	7
TAP	61	0	5
TAP	61	96	4
TAP	61	192	3
TAP	61	288	2
TAP	62	0	1
TAP	62	96	0
TAP	62	96	1
TAP	62	192	1
TAP	62	288	0
TAP	62	288	1
TAP	63	0	2
TAP	63	96	3
TAP	63	192	2
TAP	63	192	4
HLD	64	0	5	96
TAP	64	96	4
TAP	64	192	4
TAP	64	192	5
TAP	64	288	3
TAP	64	288	6
HLD	65	0	2	96
TAP	65	96	3
TAP	65	192	2
TAP	65	192	3
TAP	65	288	1
TAP	65	288	4
TAP	66	0	0
TAP	66	96	0
TAP	66	192	7
TAP	66	288	7
TAP	67	0	0
TAP	67	0	7
TAP	67	96	0
TAP	67	96	7
TAP	67	192	1
TAP	67	192	6
BRK	68	0	2
TAP	68	96	2
TAP	68	96	3
TAP	68	192	2
TAP	68	288	2
TAP	68	288	3
TAP	69	0	1
TAP	69	96	0
TAP	69	192	7
TAP	69	288	6
TAP	70	0	5
TAP	70	96	4
TAP	70	96	5
TAP	70	192	5
TAP	70	288	4
TAP	70	288	5
TAP	71	0	6
TAP	71	96	7
TAP	71	192	0
TAP	71	192	6
HLD	72	0	1	96
TAP	72	96	0
TAP	72	192	0
TAP	72	192	1
TAP	72	288	2
TAP	72	288	7
HLD	73	0	6	96
TAP	73	96	7
TAP	73	192	6
TAP	73	192	7
TAP	73	288	0
TAP	73	288	5
TAP	74	0	4
TAP	74	96	4
TAP	74	192	3
TAP	74	288	3
TAP	75	0	3
TAP	75	0	4
TAP	75	96	2
TAP	75	96	5
TAP	75	192	1
TAP	75	192	6
TTP	76	0	0	C	1	L1
XHO	76	192	0	144
XTP	76	336	7
XST	77	0	7
SXL	77	0	7	96	384	2
SXR	77	0	7	96	384	4
TAP	79	0	2
TAP	79	96	2
TAP	79	192	3
TAP	79	288	3
TAP	80	0	4
TAP	80	96	4
TAP	80	192	3
TAP	80	192	5
TAP	81	0	5
TAP	81	96	5
TAP	81	192	4
TAP	81	288	4
TAP	82	0	3
TAP	82	96	3
TAP	82	192	2
TAP	82	192	4
TAP	83	0	1
TAP	83	96	1
TAP	83	192	0
TAP	83	192	1
TAP	83	288	7
TAP	84	0	6
TAP	84	96	6
TAP	84	96	7
BRK	84	192	0
BRK	84	192	5
TAP	85	0	0
TAP	85	0	7
TAP	85	96	1
TAP	85	96	6
TAP	85	192	2
TAP	85	192	5
HLD	85	288	3	96
HLD	85	288	4	96
THO	86	96	0	1440	C	1	L1

T_REC_TAP	271
T_REC_BRK	13
T_REC_XTP	9
T_REC_HLD	13
T_REC_XHO	3
T_REC_STR	13
T_REC_BST	0
T_REC_XST	2
T_REC_TTP	15
T_REC_THO	1
T_REC_SLD	16
T_REC_ALL	356
T_NUM_TAP	310
T_NUM_BRK	13
T_NUM_HLD	17
T_NUM_SLD	16
T_NUM_ALL	356
T_JUDGE_TAP	323
T_JUDGE_HLD	65
T_JUDGE_SLD	16
T_JUDGE_ALL	404
TTM_EACHPAIRS	89
TTM_SCR_TAP	155000
TTM_SCR_BRK	33800
TTM_SCR_HLD	17000
TTM_SCR_SLD	24000
TTM_SCR_ALL	229800
TTM_SCR_S	221650
TTM_SCR_SS	228500
TTM_RAT_ACV	10056

