VERSION	0.00.00	1.03.00
FES_MODE	0
BPM_DEF	181.000	181.000	181.000	181.000
MET_DEF	4	4
RESOLUTION	384
CLK_DEF	384
COMPATIBLE_CODE	MA2

BPM	0	0	181.000
BPM	2	0	181.000
BPM	8	0	181.000
BPM	23	288	181.000
BPM	31	288	181.000
BPM	39	288	181.000
BPM	47	288	181.000
BPM	57	288	181.000
BPM	65	288	181.000
BPM	75	288	181.000
MET	0	0	4	4
MET	12	0	4	5
MET	18	96	4	6
MET	19	288	4	4

STR	2	0	3
SCL	2	0	3	96	288	0
STR	3	0	4
SCR	3	0	4	96	288	7
STR	4	0	3
SCL	4	0	3	96	288	0
TAP	5	0	7
TAP	5	192	6
STR	6	0	4
SCL	6	0	4	96	192	1
SCR	6	0	4	96	192	7
STR	7	0	3
SCL	7	0	3	96	192	0
SCR	7	0	3	96	192	6
HLD	8	0	1	96
TAP	8	0	7
STR	8	96	3
SV_	8	96	3	96	48	6
STR	8	144	3
SI_	8	144	3	96	48	7
TAP	9	0	0
HLD	9	0	5	96
STR	9	96	4
SV_	9	96	4	96	48	1
STR	9	144	4
SI_	9	144	4	96	48	0
TAP	10	0	1
TAP	10	0	6
TAP	10	96	3
TAP	10	96	4
TAP	10	192	0
TAP	10	192	7
STR	10	240	0
SI_	10	240	0	96	48	4
STR	10	240	7
SI_	10	240	7	96	48	3
XTP	10	336	0
XTP	10	336	7
TAP	11	48	2
TAP	11	48	5
TAP	11	96	2
TAP	11	96	5
TAP	11	144	2
TAP	11	144	5
TAP	11	192	2
TAP	11	192	5
BRK	11	288	0
BRK	11	288	7
STR	12	0	3
SCL	12	0	3	96	96	7
STR	12	96	7
SCL	12	96	7	96	96	3
STR	12	192	3
SUL	12	192	3	96	120	1
TAP	12	288	7
TAP	13	0	6
XST	13	96	4
SCR	13	96	4	96	96	0
STR	13	192	0
SCR	13	192	0	96	96	4
STR	13	288	4
SUR	13	288	4	96	120	6
TAP	14	0	0
TAP	14	96	1
STR	14	192	3
SCL	14	192	3	96	96	7
STR	14	288	7
SCL	14	288	7	96	96	3
STR	15	0	3
SUL	15	0	3	96	120	1
TAP	15	96	7
TAP	15	192	6
XST	15	288	4
SI_	15	288	4	96	48	0
STR	16	0	0
SI_	16	0	0	96	48	4
STR	16	96	4
SCL	16	96	4	96	72	1
SCR	16	96	4	96	72	7
STR	17	0	7
SCL	17	0	7	96	96	3
STR	17	96	3
SCL	17	96	3	96	96	7
STR	17	192	7
SUL	17	192	7	96	120	5
TAP	17	288	3
TAP	18	0	2
XST	18	96	0
SI_	18	96	0	96	48	4
STR	18	192	4
SI_	18	192	4	96	48	0
STR	18	288	0
SLR	18	288	0	96	72	4
BRK	19	0	6
XTP	19	192	3
XTP	19	192	5
XTP	19	240	3
XTP	19	240	5
STR	19	288	2
SV_	19	288	2	96	48	7
TAP	19	288	6
TAP	20	0	4
TAP	20	48	4
XTP	20	192	0
XTP	20	192	6
XTP	20	240	1
XST	20	240	5
SI_	20	240	5	96	48	0
STR	20	336	2
SI_	20	336	2	96	48	6
TAP	21	0	2
STR	21	48	7
SI_	21	48	7	96	48	4
TAP	21	96	7
TAP	21	144	1
STR	21	192	1
SXR	21	192	1	96	192	4
TAP	21	240	3
HLD	21	288	3	192
TAP	22	192	2
TAP	22	192	5
TAP	22	240	2
TAP	22	240	5
TAP	22	336	0
TAP	22	336	7
TAP	23	0	1
TAP	23	0	6
TAP	23	48	2
TAP	23	48	5
TAP	23	96	3
TAP	23	96	4
BRK	23	192	1
BRK	23	192	6
TAP	23	288	3
TAP	23	288	4
TAP	24	0	3
TAP	24	96	3
TAP	24	192	3
TAP	24	288	3
TTP	24	288	6	B	0	M1
TTP	24	288	6	E	0	M1
TAP	25	0	3
TAP	25	96	3
TAP	25	192	3
TAP	25	288	3
TTP	25	288	5	B	0	M1
TTP	25	288	5	E	0	M1
TAP	26	0	3
TAP	26	96	3
TAP	26	192	3
TAP	26	288	3
TTP	26	288	5	E	0	M1
TTP	26	300	6	E	0	M1
TTP	26	312	7	E	0	M1
TAP	27	0	3
TAP	27	96	3
TAP	27	192	3
TAP	27	192	4
TTP	27	288	2	B	0	M1
TTP	27	288	3	E	0	M1
TAP	27	288	4
TAP	28	0	4
TAP	28	96	4
TAP	28	192	4
TTP	28	288	3	E	0	M1
TAP	28	288	4
TTP	28	300	2	E	0	M1
TTP	28	312	1	E	0	M1
TAP	29	0	4
TAP	29	96	4
TAP	29	192	3
TAP	29	192	4
TAP	29	288	4
TAP	29	336	4
TAP	30	0	2
TAP	30	0	5
TAP	30	48	4
TAP	30	72	3
TAP	30	96	4
TAP	30	144	2
TAP	30	144	5
TAP	30	192	2
TAP	30	192	5
XTP	30	240	1
XTP	30	240	6
TTP	30	336	6	B	0	M1
TTP	30	336	7	E	0	M1
TTP	31	0	0	B	0	M1
TTP	31	0	1	E	0	M1
TTP	31	48	4	B	0	M1
TTP	31	48	5	E	0	M1
TTP	31	96	2	B	0	M1
TTP	31	96	3	E	0	M1
XST	31	192	1
SCR	31	192	1	96	96	5
XTP	31	192	6
STR	31	288	5
SLL	31	288	5	96	96	1
TAP	32	0	6
HLD	32	96	7	144
TAP	32	192	0
HLD	32	240	0	96
TAP	32	336	2
HLD	33	0	2	96
HLD	33	96	4	96
STR	33	192	6
SCR	33	192	6	96	72	1
TTP	33	288	0	E	0	M1
XST	34	0	2
SCR	34	0	2	96	72	5
TTP	34	96	4	E	0	M1
XST	34	192	6
SCR	34	192	6	96	72	1
TTP	34	288	0	E	0	M1
XHO	35	0	2	96
TTP	35	96	4	E	0	M1
TAP	35	192	0
STR	35	192	6
SCL	35	192	6	96	96	2
STR	35	288	2
SLR	35	288	2	96	96	6
TAP	36	0	1
HLD	36	96	0	144
TAP	36	192	6
HLD	36	240	6	96
TAP	36	336	4
HLD	37	0	4	96
HLD	37	96	2	96
TAP	37	192	0
TAP	37	288	3
TAP	37	288	6
TAP	37	336	5
TAP	38	0	1
TAP	38	0	4
TAP	38	48	2
TAP	38	96	3
TAP	38	96	6
STR	38	144	5
SCR	38	144	5	96	144	2
TAP	38	192	4
BRK	38	240	3
TAP	39	96	2
TAP	39	96	5
TAP	39	192	3
STR	39	192	4
SXL	39	192	4	96	192	3
TAP	39	288	0
TAP	40	0	1
TAP	40	96	2
TAP	40	192	2
TAP	40	240	3
TAP	40	336	4
TAP	41	0	3
TAP	41	96	2
TAP	41	96	4
TAP	41	192	1
HLD	41	192	3	192
TAP	41	288	2
HLD	42	0	1	192
TAP	42	96	2
STR	42	192	3
SCR	42	192	3	96	192	1
HLD	42	288	2	192
STR	43	192	3
SXR	43	192	3	96	192	4
TAP	43	192	4
TAP	43	288	7
TAP	44	0	6
TAP	44	96	5
TAP	44	192	5
TAP	44	240	4
TAP	44	336	3
TAP	45	0	4
TAP	45	96	3
TAP	45	96	5
HLD	45	192	4	192
TAP	45	192	6
TAP	45	288	5
HLD	46	0	6	192
TAP	46	96	5
STR	46	192	4
SCL	46	192	4	96	192	6
TTP	46	288	0	C	1	M1
XTP	47	192	0
XTP	47	192	7
TAP	47	288	4
HLD	47	288	5	96
HLD	48	0	6	96
STR	48	96	7
SXR	48	96	7	96	144	7
TAP	48	192	1
TAP	48	240	1
TAP	48	336	0
HLD	49	0	0	96
TAP	49	96	7
TAP	49	192	6
HLD	49	288	2	96
TAP	49	288	4
HLD	50	0	1	96
STR	50	96	0
SLL	50	96	0	96	144	1
TAP	50	192	3
HLD	50	240	3	192
XTP	51	48	0
TAP	51	144	1
TAP	51	192	1
TAP	51	240	5
TAP	51	288	4
TAP	51	288	6
TAP	52	0	0
TAP	52	0	7
TAP	52	96	1
TAP	52	96	3
TAP	52	192	3
TAP	52	192	4
TAP	52	288	4
TAP	52	288	6
TAP	53	0	0
TAP	53	0	7
TAP	53	48	0
TAP	53	48	7
TAP	53	144	3
STR	53	192	4
SCL	53	192	4	96	144	5
TAP	53	240	5
BRK	53	288	6
TAP	54	144	7
TAP	54	192	0
TAP	54	192	6
BRK	54	240	1
BST	54	240	5
SCL	54	240	5	96	168	6
TAP	55	192	2
TAP	55	192	5
BRK	55	288	0
TTP	55	288	7	E	0	M1
TAP	56	0	5
BRK	56	96	1
TTP	56	96	5	B	0	M1
TTP	56	96	6	E	0	M1
TAP	56	192	7
BRK	56	288	0
TAP	56	288	6
BRK	57	0	1
STR	57	0	4
SSL	57	0	4	96	96	0
BRK	57	96	2
STR	57	288	2
SI_	57	288	2	96	48	7
STR	57	288	6
SI_	57	288	6	96	48	3
BRK	58	0	2
BRK	58	0	6
HLD	58	96	0	72
TAP	58	96	4
HLD	58	168	1	72
TAP	58	240	2
STR	58	288	2
SCR	58	288	2	96	96	5
STR	59	0	5
SXR	59	0	5	96	120	0
TAP	59	96	0
XST	59	288	1
SV_	59	288	1	96	48	4
XST	59	288	7
SV_	59	288	7	96	48	4
BRK	60	0	1
BRK	60	0	7
TTP	60	8	0	C	1	M1
XTP	60	96	3
XHO	60	96	7	72
XHO	60	168	6	72
TAP	60	240	5
STR	60	288	5
SI_	60	288	5	96	48	0
STR	61	0	2
SI_	61	0	2	96	48	5
STR	61	96	7
SLL	61	96	7	96	96	1
TAP	61	192	4
STR	61	240	4
SCL	61	240	4	96	120	6
XTP	62	0	5
XHO	62	48	5	144
TAP	62	144	4
TAP	62	192	3
TAP	62	240	2
STR	62	288	6
SI_	62	288	6	96	48	4
STR	62	336	1
SI_	62	336	1	96	48	3
TAP	63	0	6
TAP	63	48	1
TAP	63	144	5
TAP	63	192	4
TAP	63	240	3
STR	63	288	3
SI_	63	288	3	96	48	5
STR	63	288	4
SCR	63	288	4	96	48	6
XTP	64	0	3
XTP	64	0	4
STR	64	96	3
SCL	64	96	3	96	48	1
STR	64	96	4
SI_	64	96	4	96	48	2
XST	64	192	3
SXL	64	192	3	96	192	7
XST	64	192	4
SXR	64	192	4	96	192	0
TTP	64	296	0	C	1	M1
XTP	65	144	1
XTP	65	144	6
XTP	65	192	1
XTP	65	192	6
STR	65	288	0
SCR	65	288	0	96	48	3
STR	65	288	7
SCL	65	288	7	96	48	4
BRK	66	0	0
BRK	66	0	7
TAP	66	96	2
TAP	66	96	5
TAP	66	168	1
TAP	66	168	3
TAP	66	240	0
TAP	66	240	7
STR	66	288	1
SCL	66	288	1	96	48	7
STR	66	288	5
SCR	66	288	5	96	48	7
STR	67	0	1
SCR	67	0	1	96	48	3
STR	67	0	5
SCL	67	0	5	96	48	3
TAP	67	96	1
TAP	67	96	5
XST	67	192	0
SI_	67	192	0	96	48	2
XST	67	192	6
SI_	67	192	6	96	48	2
BRK	67	288	0
BRK	67	288	6
XST	68	0	0
SI_	68	0	0	96	48	4
XST	68	0	6
SI_	68	0	6	96	48	4
BRK	68	96	0
BRK	68	96	6
XTP	68	192	1
XST	68	192	7
SF_	68	192	7	96	48	3
BRK	68	288	7
TAP	69	0	1
TAP	69	0	5
TAP	69	48	1
TAP	69	48	5
TAP	69	144	3
TAP	69	144	4
STR	69	192	3
SI_	69	192	3	96	48	0
STR	69	192	4
SI_	69	192	4	96	48	7
XTP	70	0	1
XTP	70	0	6
XTP	70	48	5
XTP	70	96	3
XTP	70	96	4
XTP	70	144	2
XTP	70	192	1
XTP	70	192	5
TTP	70	288	0	C	1	M1
TTP	70	288	3	B	0	M1
BRK	70	288	7
BRK	71	0	0
TTP	71	0	0	C	1	M1
TTP	71	0	4	B	0	M1
TTP	71	96	0	C	1	M1
TTP	71	96	2	B	0	M1
BRK	71	96	6
XTP	71	192	0
XST	71	192	7
SCL	71	192	7	96	48	4
HLD	71	288	1	144
TAP	72	0	2
STR	72	48	2
SI_	72	48	2	96	48	6
TAP	72	144	0
STR	72	192	0
SCR	72	192	0	96	48	3
HLD	72	288	6	144
TAP	73	0	5
STR	73	48	5
SI_	73	48	5	96	48	1
TAP	73	144	7
STR	73	192	7
SI_	73	192	7	96	48	3
TTP	73	288	0	C	1	M1
TTP	73	288	1	B	0	M1
BRK	73	288	7
XTP	74	144	2
XTP	74	144	5
HLD	74	240	0	96
TAP	74	240	7
TAP	74	336	6
TAP	75	0	1
TAP	75	0	5
TAP	75	48	2
STR	75	96	3
SI_	75	96	3	96	48	7
STR	75	96	4
SI_	75	96	4	96	48	0
STR	75	192	3
SCL	75	192	3	96	216	4
STR	75	192	4
SCR	75	192	4	96	216	3
BRK	75	288	3
BRK	75	288	4
TAP	76	288	0
HLD	76	288	5	96
STR	77	0	4
SV_	77	0	4	96	48	1
STR	77	48	4
SI_	77	48	4	96	48	0
TAP	77	288	0
TAP	77	288	7
TAP	78	0	3
TAP	78	0	4
TAP	78	96	2
TAP	78	96	6
STR	78	144	2
SI_	78	144	2	96	48	5
STR	78	144	6
SI_	78	144	6	96	48	1
XTP	78	240	2
XTP	78	240	6
TAP	79	0	3
TAP	79	0	7
TAP	79	48	3
STR	79	48	7
SLR	79	48	7	96	96	5
STR	79	144	5
SCL	79	144	5	96	192	6
BRK	79	240	1
STR	80	192	1
SUR	80	192	1	96	72	6
TAP	80	192	6
TTP	80	288	0	C	1	M1
BRK	81	96	0
BRK	81	96	7
BRK	81	144	0
BRK	81	144	7

T_REC_TAP	210
T_REC_BRK	35
T_REC_XTP	37
T_REC_HLD	28
T_REC_XHO	4
T_REC_STR	80
T_REC_BST	1
T_REC_XST	17
T_REC_TTP	39
T_REC_THO	0
T_REC_SLD	101
T_REC_ALL	552
T_NUM_TAP	383
T_NUM_BRK	36
T_NUM_HLD	32
T_NUM_SLD	101
T_NUM_ALL	552
T_JUDGE_TAP	419
T_JUDGE_HLD	83
T_JUDGE_SLD	101
T_JUDGE_ALL	603
TTM_EACHPAIRS	108
TTM_SCR_TAP	191500
TTM_SCR_BRK	93600
TTM_SCR_HLD	32000
TTM_SCR_SLD	151500
TTM_SCR_ALL	468600
TTM_SCR_S	451050
TTM_SCR_SS	465000
TTM_RAT_ACV	10077

