VERSION	0.00.00	1.03.00
FES_MODE	0
BPM_DEF	181.000	181.000	181.000	181.000
MET_DEF	4	4
RESOLUTION	384
CLK_DEF	384
COMPATIBLE_CODE	MA2

BPM	0	0	181.000
MET	0	0	4	4
MET	12	0	4	5
MET	18	96	4	6
MET	19	288	4	4

TAP	2	0	2
HLD	2	0	5	384
TAP	3	0	4
TAP	3	192	3
TAP	3	192	4
HLD	4	0	2	384
TAP	4	0	5
TAP	5	0	3
TAP	5	192	3
TAP	5	192	4
HLD	6	0	5	672
HLD	7	0	3	288
BRK	8	0	2
BRK	8	0	6
TAP	8	96	7
TAP	8	192	0
TAP	8	288	1
TAP	9	0	2
TAP	9	0	3
TAP	9	96	4
TAP	9	192	3
TAP	9	192	5
STR	9	288	3
SI_	9	288	3	96	144	0
SI_	9	288	3	96	144	6
TAP	9	288	5
XTP	10	288	1
XTP	10	288	5
XTP	10	336	1
XTP	10	336	5
TAP	11	192	3
TAP	11	192	4
TAP	12	0	5
TAP	12	96	5
TAP	12	192	4
TAP	12	192	6
TAP	12	288	3
TAP	12	288	5
TAP	13	0	3
TAP	13	0	5
TAP	13	96	2
TAP	13	192	2
TAP	13	288	1
TAP	13	288	3
TAP	14	0	2
TAP	14	0	4
TAP	14	96	2
TAP	14	96	4
TAP	14	192	5
TAP	14	288	5
TAP	15	0	4
TAP	15	0	6
TAP	15	96	3
TAP	15	96	5
TAP	15	192	3
TAP	15	192	5
TAP	15	288	2
TAP	16	0	2
TAP	16	96	1
TAP	16	96	3
TAP	16	192	0
TAP	16	192	4
TAP	17	0	5
TAP	17	96	5
TAP	17	192	3
TAP	17	192	6
TAP	17	288	2
TAP	17	288	5
TAP	18	0	2
TAP	18	0	5
TAP	18	96	1
TAP	18	96	4
TAP	18	192	2
TAP	18	192	5
TAP	18	288	3
TAP	18	288	6
XTP	19	0	3
XTP	19	0	6
TAP	19	192	4
TAP	19	288	3
TAP	19	288	5
TAP	20	0	2
TAP	20	0	6
HLD	20	48	2	96
HLD	20	48	6	96
TAP	20	240	1
TAP	20	240	5
TAP	20	336	0
TAP	21	0	0
TAP	21	96	1
TAP	21	96	7
TAP	21	192	2
STR	21	192	6
SCL	21	192	6	96	192	1
XTP	22	240	0
XTP	22	240	7
XTP	22	336	1
XTP	22	336	6
XTP	23	0	1
XTP	23	0	6
XTP	23	48	1
XTP	23	48	6
XTP	23	96	1
XTP	23	96	6
TAP	23	288	2
HLD	24	0	2	576
TAP	24	96	3
TAP	24	192	3
TAP	24	288	4
TAP	25	0	4
TAP	25	96	3
TAP	25	192	3
HLD	25	288	3	96
HLD	25	288	4	96
HLD	26	96	4	96
HLD	26	96	5	96
HLD	26	288	2	96
HLD	26	288	3	96
XTP	27	96	1
XTP	27	96	4
TAP	27	288	5
HLD	28	0	5	576
TAP	28	96	4
TAP	28	192	3
TAP	28	288	4
TAP	29	0	4
TAP	29	96	3
STR	29	192	4
SUL	29	192	4	96	288	3
XTP	31	0	1
XTP	31	0	5
XTP	31	96	1
XTP	31	96	5
TAP	31	288	2
TAP	31	288	3
TAP	32	0	1
TAP	32	0	4
TAP	32	96	5
TAP	32	144	5
TAP	32	192	4
TAP	32	288	3
TAP	32	288	6
TAP	33	0	4
TAP	33	0	5
TAP	33	96	3
TAP	33	144	3
TAP	33	192	4
TAP	33	288	2
TAP	34	0	1
TAP	34	0	3
TAP	34	96	4
TAP	34	192	3
TAP	34	192	5
TAP	34	288	2
TAP	34	288	6
TAP	35	0	1
TAP	35	0	5
XTP	35	96	0
XTP	35	96	4
TAP	35	288	1
TAP	36	0	2
TAP	36	96	3
TAP	36	96	4
TAP	36	192	5
HLD	36	240	5	96
TAP	36	336	4
TAP	37	0	4
TAP	37	96	3
TAP	37	96	6
STR	37	192	2
SCL	37	192	2	96	192	5
TAP	37	192	5
XTP	38	192	4
XTP	38	240	4
TAP	38	336	3
TAP	38	336	5
TAP	39	0	3
TAP	39	0	5
BRK	39	96	2
BRK	39	96	6
HLD	39	288	5	144
TAP	40	48	4
TAP	40	96	4
TAP	40	192	3
TAP	40	192	6
HLD	40	288	2	144
TAP	41	48	3
TAP	41	96	3
TAP	41	192	1
TAP	41	192	4
HLD	41	288	0	96
HLD	41	288	5	96
HLD	42	96	1	96
HLD	42	96	6	96
HLD	42	288	2	96
HLD	42	288	7	96
TAP	43	96	0
TAP	43	96	1
HLD	43	288	2	144
TAP	44	48	3
TAP	44	96	3
TAP	44	192	1
TAP	44	192	4
HLD	44	288	5	144
TAP	45	48	4
TAP	45	96	4
TAP	45	192	3
TAP	45	192	6
STR	45	288	2
SCL	45	288	2	96	96	7
STR	46	96	6
SCL	46	96	6	96	96	3
BRK	46	288	0
XTP	47	96	1
XTP	47	96	6
HLD	47	288	2	96
HLD	48	0	3	96
TAP	48	96	1
TAP	48	192	0
TAP	48	192	4
TAP	48	240	0
TAP	48	240	4
TAP	48	336	1
TAP	49	0	1
TAP	49	96	2
TAP	49	96	3
TAP	49	192	4
HLD	49	288	5	96
HLD	50	0	4	96
TAP	50	96	6
TAP	50	192	3
TAP	50	192	7
STR	50	240	3
SCL	50	240	3	96	96	0
STR	50	240	7
SCL	50	240	7	96	96	4
XTP	51	192	1
XTP	51	192	5
TAP	51	288	2
TAP	51	288	4
TAP	52	0	2
TAP	52	0	4
TAP	52	96	3
TAP	52	96	5
TAP	52	192	3
TAP	52	192	5
TAP	52	288	4
TAP	52	288	6
TAP	53	0	7
TAP	53	96	0
STR	53	192	1
SUR	53	192	1	96	192	6
TAP	53	192	3
XTP	54	192	7
XST	54	240	7
SCL	54	240	7	96	240	2
HLD	55	288	0	96
HLD	56	96	1	96
XTP	56	288	0
XTP	57	0	1
XTP	57	96	2
XTP	57	96	3
XTP	57	192	3
XTP	57	192	4
BRK	57	288	4
BRK	57	288	5
BRK	58	0	1
BRK	58	0	7
HLD	58	96	2	72
HLD	58	168	3	72
TAP	58	240	4
TAP	58	288	4
TAP	59	0	4
TAP	59	0	5
XTP	59	96	3
XTP	59	96	6
BRK	59	288	2
BRK	59	288	3
BRK	60	0	0
BRK	60	0	6
HLD	60	96	5	72
HLD	60	168	4	72
TAP	60	240	3
TAP	60	288	3
TAP	61	0	2
TAP	61	0	4
TAP	61	96	3
TAP	61	96	5
TAP	61	192	2
TAP	61	192	6
BRK	61	240	2
BRK	61	240	6
XHO	62	48	5	96
TAP	62	144	4
TAP	62	192	4
TAP	62	288	2
TAP	63	0	1
TAP	63	0	3
TAP	63	48	1
TAP	63	48	3
TAP	63	144	4
XTP	63	240	3
XTP	63	240	5
XTP	63	288	3
XTP	63	288	5
BRK	64	0	0
BRK	64	0	1
XTP	64	96	2
XTP	64	96	4
BST	64	192	6
SCL	64	192	6	96	192	2
BRK	64	192	7
XTP	65	144	1
XTP	65	192	1
BRK	65	288	2
BRK	65	288	3
BRK	66	0	6
BRK	66	0	7
HLD	66	96	5	72
HLD	66	168	4	72
TAP	66	240	3
TAP	66	288	3
TAP	67	0	2
TAP	67	0	4
TAP	67	96	1
TAP	67	96	5
TAP	67	192	1
TAP	67	192	5
TAP	67	288	6
TAP	67	288	7
BRK	68	0	2
BRK	68	0	4
TAP	68	96	0
TAP	68	96	1
BRK	68	192	3
BRK	68	192	5
TAP	68	288	6
TAP	68	288	7
TAP	69	0	5
TAP	69	48	5
TAP	69	144	2
TAP	69	144	4
TAP	69	192	2
TAP	69	192	4
BRK	69	288	1
BRK	69	288	5
XHO	70	48	6	96
TAP	70	144	7
TAP	70	192	7
TTP	70	288	4	B	0	M1
TTP	70	288	5	B	0	M1
TTP	70	288	6	E	0	M1
TTP	71	0	2	B	0	M1
TTP	71	0	2	E	0	M1
TTP	71	0	3	B	0	M1
TTP	71	96	0	C	1	M1
TTP	71	96	1	B	0	M1
TTP	71	96	6	B	0	M1
XTP	71	288	0
XTP	71	288	7
TAP	72	0	6
HLD	72	48	6	96
TAP	72	144	4
TAP	72	192	4
XTP	72	288	3
XTP	72	288	5
TAP	73	0	2
HLD	73	48	2	96
TAP	73	144	3
TAP	73	192	3
TTP	73	288	0	C	1	M1
TTP	73	288	2	B	0	M1
TTP	73	288	5	B	0	M1
XTP	74	144	0
XTP	74	144	7
XHO	74	240	1	96
XHO	74	240	6	96
XTP	75	0	1
XTP	75	0	6
TAP	75	96	4
TAP	75	96	5
BST	75	192	2
SCL	75	192	2	96	192	7
BST	75	192	3
SCR	75	192	3	96	192	6
XTP	76	288	4
XTP	76	288	5
TAP	76	336	4
TAP	76	336	5
HLD	77	48	3	96
HLD	77	48	6	96
TAP	77	192	3
TAP	77	192	6
TAP	77	288	4
TAP	77	288	5
TAP	78	0	3
TAP	78	0	4
TAP	78	96	2
TAP	78	96	3
TAP	78	192	1
HLD	78	240	1	96
TAP	78	336	0
TAP	79	48	2
STR	79	144	3
SI_	79	144	3	96	144	7
TAP	79	144	4
TAP	80	96	0
TAP	80	96	6
STR	80	192	0
SV_	80	192	0	96	96	3
STR	80	192	6
SV_	80	192	6	96	96	3
BRK	81	96	1
BRK	81	96	5
BRK	81	144	1
BRK	81	144	5

T_REC_TAP	236
T_REC_BRK	32
T_REC_XTP	57
T_REC_HLD	42
T_REC_XHO	4
T_REC_STR	12
T_REC_BST	3
T_REC_XST	1
T_REC_TTP	12
T_REC_THO	0
T_REC_SLD	17
T_REC_ALL	416
T_NUM_TAP	318
T_NUM_BRK	35
T_NUM_HLD	46
T_NUM_SLD	17
T_NUM_ALL	416
T_JUDGE_TAP	353
T_JUDGE_HLD	144
T_JUDGE_SLD	17
T_JUDGE_ALL	514
TTM_EACHPAIRS	133
TTM_SCR_TAP	159000
TTM_SCR_BRK	91000
TTM_SCR_HLD	46000
TTM_SCR_SLD	25500
TTM_SCR_ALL	321500
TTM_SCR_S	308500
TTM_SCR_SS	318000
TTM_RAT_ACV	10110

