VERSION	0.00.00	1.03.00
FES_MODE	0
BPM_DEF	181.000	181.000	181.000	181.000
MET_DEF	4	4
RESOLUTION	384
CLK_DEF	384
COMPATIBLE_CODE	MA2

BPM	0	0	181.000
MET	0	0	4	4
MET	12	0	4	5
MET	18	96	4	6
MET	19	288	4	4

TTP	2	0	3	E	0	L1
TTP	3	0	2	E	0	L1
TTP	4	0	1	E	0	L1
TTP	5	0	0	E	0	L1
TTP	6	0	7	E	0	L1
TTP	7	0	6	E	0	L1
TAP	8	0	4
STR	8	0	5
SI_	8	0	5	96	144	0
STR	9	0	1
SI_	9	0	1	96	144	4
TAP	10	0	5
TAP	10	96	5
TAP	10	192	6
TAP	10	288	6
TAP	11	0	0
TAP	11	0	7
TAP	11	96	0
TAP	11	96	7
TAP	11	192	1
TAP	11	192	6
TAP	12	0	5
TAP	12	96	5
TAP	12	192	5
TAP	12	288	3
TAP	13	0	3
TAP	13	96	4
TAP	13	192	4
TAP	13	288	4
TAP	14	0	2
TAP	14	96	2
TAP	14	192	4
TAP	14	288	4
TAP	15	0	4
TAP	15	96	3
TAP	15	192	3
TAP	15	288	3
TAP	15	288	4
TAP	16	0	2
TAP	16	0	5
TAP	16	96	1
TAP	16	96	6
BRK	16	192	0
BRK	16	192	7
TAP	17	0	6
TAP	17	96	6
TAP	17	192	6
TAP	17	288	0
TAP	18	0	0
TAP	18	96	7
TAP	18	192	0
TAP	18	192	7
TAP	18	288	1
TAP	18	288	6
TAP	19	0	1
TAP	19	0	6
XTP	19	192	5
XST	19	288	5
SI_	19	288	5	96	144	0
TAP	20	288	1
TAP	21	0	1
TAP	21	96	2
STR	21	192	3
SCL	21	192	3	96	288	6
XTP	23	0	0
XTP	23	0	7
BRK	23	96	1
BRK	23	96	6
STR	23	288	5
SCL	23	288	5	96	144	2
STR	24	288	1
SUR	24	288	1	96	144	5
STR	25	288	6
SUL	25	288	6	96	144	2
HLD	26	288	1	192
TAP	27	96	0
STR	27	288	2
SCR	27	288	2	96	144	5
STR	28	288	6
SUL	28	288	6	96	144	2
HLD	29	288	1	192
TAP	30	96	7
HLD	30	192	7	192
TAP	31	0	0
BRK	31	96	1
BRK	31	96	6
TAP	31	288	5
TAP	32	0	5
TAP	32	96	4
TAP	32	96	5
TAP	32	288	2
TAP	33	0	2
TAP	33	96	2
TAP	33	96	3
TAP	33	288	5
TAP	34	0	5
TAP	34	96	4
TAP	34	192	4
TAP	34	288	3
TAP	35	0	3
TAP	35	96	2
TAP	35	96	4
TAP	35	288	1
TAP	36	0	1
TAP	36	96	0
TAP	36	96	1
TAP	36	288	6
TAP	37	0	6
TAP	37	96	6
TAP	37	96	7
TAP	37	288	1
TAP	38	0	1
TAP	38	96	0
TAP	38	192	0
TAP	38	288	0
TAP	38	288	7
TAP	39	0	0
TAP	39	0	7
TAP	39	96	1
TAP	39	96	6
HLD	39	288	5	192
HLD	40	96	4	192
HLD	40	288	3	192
TAP	41	96	2
TAP	41	288	1
TAP	42	96	0
TAP	42	96	1
STR	42	288	7
SUL	42	288	7	96	144	3
HLD	43	288	2	192
HLD	44	96	3	192
HLD	44	288	4	192
TAP	45	96	5
TAP	45	288	6
TAP	46	96	6
TAP	46	96	7
STR	46	288	0
SUR	46	288	0	96	144	4
HLD	47	288	5	192
TAP	48	96	4
TAP	48	288	6
TAP	49	0	6
TAP	49	96	6
TAP	49	96	7
HLD	49	288	1	192
TAP	50	96	0
TAP	50	288	2
TAP	51	0	2
TAP	51	96	3
TAP	51	96	4
TTP	51	288	6	E	0	L1
TTP	52	0	5	B	0	L1
TTP	52	96	5	E	0	L1
TTP	52	288	2	E	0	L1
TTP	53	0	2	B	0	L1
TTP	53	96	3	E	0	L1
XTP	53	288	4
XTP	54	0	4
TAP	54	96	3
STR	54	192	3
SI_	54	192	3	96	144	0
STR	54	192	4
SI_	54	192	4	96	144	7
TAP	55	288	0
TAP	56	96	1
TAP	56	288	0
TAP	57	0	1
TAP	57	96	2
XTP	57	192	3
XTP	57	192	4
TAP	57	288	5
BRK	58	0	4
BRK	58	0	5
TAP	58	96	2
TAP	58	192	2
TAP	58	192	3
TAP	58	288	1
TAP	59	0	0
TAP	59	0	1
TAP	59	96	2
TAP	59	96	7
TAP	59	288	6
BRK	60	0	6
BRK	60	0	7
TAP	60	96	5
TAP	60	192	4
TAP	60	288	3
TAP	61	0	2
TAP	61	96	1
TAP	61	192	0
STR	61	288	7
SCL	61	288	7	96	144	4
STR	62	288	3
SCL	62	288	3	96	144	0
TAP	63	288	6
BRK	64	0	7
TAP	64	96	0
BRK	64	192	1
STR	64	288	0
SI_	64	288	0	96	144	4
STR	64	288	7
SI_	64	288	7	96	144	3
TAP	65	288	2
BRK	66	0	2
BRK	66	0	3
TAP	66	96	5
TAP	66	192	4
TAP	66	192	5
TAP	66	288	6
TAP	67	0	6
TAP	67	0	7
TAP	67	96	0
TAP	67	96	5
TAP	67	288	1
BRK	68	0	0
BRK	68	0	1
TAP	68	96	2
TAP	68	192	3
TAP	68	288	4
TAP	69	0	5
TAP	69	96	6
TAP	69	192	7
STR	69	288	0
SCR	69	288	0	96	144	3
STR	69	288	7
SCL	69	288	7	96	144	4
TTP	70	288	0	C	1	L1
XTP	71	288	1
XTP	72	0	1
HLD	72	96	0	96
HLD	72	96	1	96
TAP	72	288	7
TAP	73	0	7
HLD	73	96	0	96
HLD	73	96	7	96
TTP	73	288	0	C	1	L1
XTP	74	288	0
XTP	75	0	0
TAP	75	96	7
TAP	75	192	7
STR	75	288	0
SI_	75	288	0	96	144	4
TAP	75	288	7
STR	76	288	5
SI_	76	288	5	96	144	0
STR	77	288	1
SI_	77	288	1	96	144	5
TAP	78	288	6
TAP	79	0	6
TAP	79	96	7
XST	79	192	7
SCL	79	192	7	96	192	2
TAP	80	288	0
TAP	80	288	7
XTP	81	96	1
XTP	81	96	6
XTP	81	144	1
XTP	81	144	6

T_REC_TAP	152
T_REC_BRK	16
T_REC_XTP	15
T_REC_HLD	15
T_REC_XHO	0
T_REC_STR	21
T_REC_BST	0
T_REC_XST	2
T_REC_TTP	14
T_REC_THO	0
T_REC_SLD	23
T_REC_ALL	258
T_NUM_TAP	204
T_NUM_BRK	16
T_NUM_HLD	15
T_NUM_SLD	23
T_NUM_ALL	258
T_JUDGE_TAP	220
T_JUDGE_HLD	52
T_JUDGE_SLD	23
T_JUDGE_ALL	295
TTM_EACHPAIRS	46
TTM_SCR_TAP	102000
TTM_SCR_BRK	41600
TTM_SCR_HLD	15000
TTM_SCR_SLD	34500
TTM_SCR_ALL	193100
TTM_SCR_S	185800
TTM_SCR_SS	191500
TTM_RAT_ACV	10083

