VERSION	0.00.00	1.03.00
FES_MODE	0
BPM_DEF	181.000	181.000	181.000	181.000
MET_DEF	4	4
RESOLUTION	384
CLK_DEF	384
COMPATIBLE_CODE	MA2

BPM	0	0	181.000
MET	0	0	4	4
MET	12	0	4	5
MET	18	96	4	6
MET	19	288	4	4

TAP	2	0	0
TAP	4	0	0
TAP	6	0	7
XHO	8	0	7	384
XHO	10	0	0	384
STR	12	0	0
SI_	12	0	0	96	288	3
STR	14	192	7
SI_	14	192	7	96	288	4
STR	17	0	0
SI_	17	0	0	96	288	3
XTP	19	288	7
TAP	20	288	7
BRK	21	288	7
HLD	23	288	0	384
HLD	25	288	1	384
HLD	27	288	2	384
HLD	29	288	3	384
HLD	29	288	4	384
XTP	31	288	4
TAP	32	288	4
TAP	33	288	5
TAP	34	288	5
TAP	35	288	6
TAP	36	288	6
XHO	37	288	0	384
XHO	37	288	7	384
TTP	39	288	0	B	0	L1
TTP	40	288	7	B	0	L1
TTP	41	288	1	B	0	L1
TTP	42	288	6	B	0	L1
TTP	43	288	2	B	0	L1
TTP	44	288	5	B	0	L1
TTP	45	288	3	B	0	L1
TTP	46	288	0	C	0	L1
HLD	47	288	6	384
HLD	47	288	7	384
HLD	49	288	4	384
HLD	49	288	5	384
HLD	51	288	2	384
HLD	51	288	3	384
HLD	53	288	0	384
HLD	53	288	1	384
XHO	55	288	0	384
XHO	55	288	7	384
BRK	57	288	0
TAP	58	96	0
TAP	58	288	0
XTP	59	288	1
TAP	60	96	1
TAP	60	288	1
TAP	61	288	2
TAP	62	96	2
TAP	62	288	2
TAP	63	288	3
TAP	63	288	4
TAP	64	288	3
TAP	64	288	4
BRK	65	288	4
TAP	66	96	4
TAP	66	288	4
TAP	67	288	5
TAP	68	96	5
TAP	68	288	5
TAP	69	288	6
TAP	70	96	6
TAP	70	288	6
TAP	71	288	7
TAP	72	96	7
TAP	72	288	7
TAP	73	288	0
TAP	74	96	0
TAP	74	288	0
STR	75	288	0
SI_	75	288	0	96	288	3
STR	75	288	7
SI_	75	288	7	96	288	4
TTP	77	288	4	E	0	L1
TTP	78	288	3	B	0	L1
TTP	78	288	4	B	0	L1
TTP	79	288	2	B	0	L1
TTP	79	288	5	B	0	L1
THO	80	288	0	192	C	1	L1

T_REC_TAP	34
T_REC_BRK	3
T_REC_XTP	3
T_REC_HLD	13
T_REC_XHO	6
T_REC_STR	5
T_REC_BST	0
T_REC_XST	0
T_REC_TTP	13
T_REC_THO	1
T_REC_SLD	5
T_REC_ALL	83
T_NUM_TAP	55
T_NUM_BRK	3
T_NUM_HLD	20
T_NUM_SLD	5
T_NUM_ALL	83
T_JUDGE_TAP	58
T_JUDGE_HLD	156
T_JUDGE_SLD	5
T_JUDGE_ALL	219
TTM_EACHPAIRS	10
TTM_SCR_TAP	27500
TTM_SCR_BRK	7800
TTM_SCR_HLD	20000
TTM_SCR_SLD	7500
TTM_SCR_ALL	62800
TTM_SCR_S	60650
TTM_SCR_SS	62500
TTM_RAT_ACV	10048

